<?xml version="1.0" standalone="no"?>
<!DOCTYPE svg PUBLIC "-//W3C//DTD SVG 1.1//EN" "http://www.w3.org/Graphics/SVG/1.1/DTD/svg11.dtd" >
<svg xmlns="http://www.w3.org/2000/svg" xmlns:xlink="http://www.w3.org/1999/xlink" version="1.1">
<metadata>
Created by FontForge 20201107 at Mon Feb 24 12:29:06 2025
 By 
Copyright (c) 2016 by Chris Simpson.
</metadata>
<defs>
<font id="Metropolis-Regular" horiz-adv-x="1306" >
  <font-face 
    font-family="Metropolis"
    font-weight="400"
    font-stretch="normal"
    units-per-em="2048"
    panose-1="0 0 5 0 0 0 0 0 0 0"
    ascent="1628"
    descent="-420"
    x-height="1059"
    cap-height="1407"
    bbox="-358 -563 2296 1976"
    underline-thickness="40"
    underline-position="-271"
    unicode-range="U+0020-2212"
  />
<missing-glyph horiz-adv-x="1024" 
d="M840 1628v-2048h-650v2048h650zM682 1491h-338v-68h133v-75h-135v-68h340v68h-135v75h135v68zM547 1227h-205v-213h340v69h-135v144zM477 1157v-74h-67v74h67zM682 958h-340v-67h135v-76h-135v-67h205v143h135v67zM682 836h-68v-136h-272v-69h340v205zM682 586h-205v-115
h70v47h67v-96h-204v164h-68v-232h340v232zM682 231h-340v-231h340v231zM614 164v-96h-204v96h204zM682 -47h-340v-68h143l-143 -96v-68h340v68h-209l143 96h66v68z" />
    <glyph glyph-name=".notdef" horiz-adv-x="1024" 
d="M840 1628v-2048h-650v2048h650zM682 1491h-338v-68h133v-75h-135v-68h340v68h-135v75h135v68zM547 1227h-205v-213h340v69h-135v144zM477 1157v-74h-67v74h67zM682 958h-340v-67h135v-76h-135v-67h205v143h135v67zM682 836h-68v-136h-272v-69h340v205zM682 586h-205v-115
h70v47h67v-96h-204v164h-68v-232h340v232zM682 231h-340v-231h340v231zM614 164v-96h-204v96h204zM682 -47h-340v-68h143l-143 -96v-68h340v68h-209l143 96h66v68z" />
    <glyph glyph-name=".null" horiz-adv-x="0" 
 />
    <glyph glyph-name="nonmarkingreturn" horiz-adv-x="682" 
 />
    <glyph glyph-name="space" unicode=" " horiz-adv-x="593" 
 />
    <glyph glyph-name="exclam" unicode="!" horiz-adv-x="559" 
d="M229 395l-39 1012h189l-41 -1012h-109zM283 -25q-47 0 -80 33.5t-33 79.5q0 43 33 76t80 33q44 0 76 -33t32 -76q0 -46 -32 -79.5t-76 -33.5z" />
    <glyph glyph-name="quotedbl" unicode="&#x22;" horiz-adv-x="847" 
d="M195 879q-4 26 -19 126t-23 168.5t-8 114.5q0 38 28.5 66t66.5 28t66 -28t28 -66q0 -46 -7.5 -113.5t-23 -171t-18.5 -124.5h-90zM563 879q-3 21 -18.5 124.5t-23 171t-7.5 113.5q0 38 28 66t66 28t66 -28t28 -66q0 -46 -7.5 -113.5t-23 -171t-18.5 -124.5h-90z" />
    <glyph glyph-name="numbersign" unicode="#" horiz-adv-x="1380" 
d="M1268 913h-242l-106 -421h241l-31 -125h-241l-92 -367h-135l92 367h-308l-92 -367h-135l92 367h-231l31 125h231l107 421h-234l31 125h235l92 369h136l-93 -369h308l92 369h135l-92 -369h239zM784 492l107 421h-307l-107 -421h307z" />
    <glyph glyph-name="dollar" unicode="$" horiz-adv-x="1255" 
d="M1145 383q0 -165 -116 -277.5t-329 -125.5v-132h-159v136q-260 33 -447 217l101 125q157 -157 346 -193v518q-98 25 -167 55t-123.5 74t-81 106.5t-26.5 145.5q0 153 112 264.5t286 133.5v124h159v-124q223 -27 408 -197l-98 -125q-148 141 -310 170v-492
q83 -20 146.5 -42.5t122 -56t95.5 -75t59 -99.5t22 -130zM305 1044q0 -81 58 -130t178 -85v453q-104 -19 -170 -86t-66 -152zM700 125q134 10 208.5 80t74.5 164q0 92 -68.5 146t-214.5 95v-485z" />
    <glyph glyph-name="percent" unicode="%" horiz-adv-x="1630" 
d="M422 715q-143 0 -234.5 101t-91.5 247q0 153 93 254.5t235 101.5q144 0 235 -101.5t91 -250.5q0 -151 -92.5 -251.5t-235.5 -100.5zM268 0l963 1407h135l-963 -1407h-135zM424 825q86 0 141.5 68.5t55.5 171.5q0 105 -56.5 174.5t-142.5 69.5t-141.5 -69t-55.5 -175
q0 -101 57 -170.5t142 -69.5zM1204 -20q-141 0 -233 100.5t-92 251.5q0 148 91.5 250t235.5 102q143 0 234.5 -102t91.5 -248q0 -151 -93 -252.5t-235 -101.5zM1206 90q87 0 142 68.5t55 173.5q0 103 -56.5 172t-142.5 69t-141 -69t-55 -170q0 -105 55.5 -174.5t142.5 -69.5
z" />
    <glyph glyph-name="ampersand" unicode="&#x26;" horiz-adv-x="1372" 
d="M1286 53l-145 -67l-185 186q-190 -197 -430 -197q-192 0 -317 108.5t-125 289.5q0 269 322 411q-119 165 -119 310q0 140 101 234.5t257 94.5q140 0 236 -96t96 -229q0 -68 -24.5 -122t-73.5 -96t-106 -73t-140 -64q122 -144 321 -352q98 148 160 316l133 -60
q-101 -224 -194 -356zM645 1286q-90 0 -147.5 -51.5t-57.5 -140.5q0 -112 111 -252q148 58 210 112.5t62 139.5q0 82 -50.5 137t-127.5 55zM532 113q177 0 326 159q-240 249 -373 410q-247 -115 -247 -305q0 -121 84.5 -192.5t209.5 -71.5z" />
    <glyph glyph-name="quotesingle" unicode="'" horiz-adv-x="479" 
d="M195 879q-4 26 -19 126t-23 168.5t-8 114.5q0 38 28.5 66t66.5 28t66 -28t28 -66q0 -46 -7.5 -113.5t-23 -171t-18.5 -124.5h-90z" />
    <glyph glyph-name="parenleft" unicode="(" horiz-adv-x="731" 
d="M555 -348q-207 173 -317.5 401t-110.5 490q0 263 110.5 490.5t317.5 400.5l82 -86q-174 -179 -260 -370.5t-86 -434.5q0 -242 86 -434t260 -369z" />
    <glyph glyph-name="parenright" unicode=")" horiz-adv-x="731" 
d="M176 -348l-82 88q174 177 260 369t86 434q0 243 -86 434.5t-260 370.5l82 86q207 -173 317.5 -400.5t110.5 -490.5q0 -262 -110.5 -490t-317.5 -401z" />
    <glyph glyph-name="asterisk" unicode="*" horiz-adv-x="837" 
d="M418 770q-22 0 -36.5 13t-14.5 32q0 51 15 146.5t17 109.5q-20 -15 -90.5 -73t-113.5 -83q-15 -9 -35.5 -2.5t-30.5 25.5t-5.5 38t19.5 28q43 25 131.5 58.5t106.5 41.5q-18 8 -106.5 41.5t-131.5 58.5q-15 9 -19.5 28t5.5 38q10 18 30.5 24.5t35.5 -2.5q43 -25 114 -83
t90 -72q-2 14 -17 109.5t-15 146.5q0 19 14.5 32t36.5 13t36.5 -13t14.5 -32q0 -51 -15.5 -145t-17.5 -111q18 13 90 71.5t115 83.5q15 9 35.5 2.5t30.5 -24.5q10 -19 5 -38t-20 -28q-43 -25 -131.5 -59t-105.5 -41q17 -7 105.5 -41t131.5 -59q15 -9 20 -28t-5 -38
t-30.5 -25.5t-35.5 2.5q-43 25 -114 83.5t-91 72.5q2 -17 17.5 -111t15.5 -145q0 -19 -14.5 -32t-36.5 -13z" />
    <glyph glyph-name="plus" unicode="+" horiz-adv-x="1214" 
d="M1077 760v-152h-393v-393h-154v393h-393v152h393v395h154v-395h393z" />
    <glyph glyph-name="comma" unicode="," horiz-adv-x="540" 
d="M238 -272l-76 57q81 93 106 190q-45 0 -77.5 33.5t-32.5 79.5q0 44 32 76.5t80 32.5q57 0 91 -46t34 -118q0 -62 -33 -126.5t-124 -178.5z" />
    <glyph glyph-name="hyphen" unicode="-" horiz-adv-x="759" 
d="M115 481v150h530v-150h-530z" />
    <glyph glyph-name="period" unicode="." horiz-adv-x="518" 
d="M262 -25q-47 0 -79.5 33.5t-32.5 79.5q0 44 33 76.5t79 32.5q44 0 76.5 -33t32.5 -76q0 -46 -32.5 -79.5t-76.5 -33.5z" />
    <glyph glyph-name="slash" unicode="/" horiz-adv-x="849" 
d="M-33 -152l719 1674h174l-719 -1674h-174z" />
    <glyph glyph-name="zero" unicode="0" horiz-adv-x="1411" 
d="M707 -25q-170 0 -303.5 92.5t-208 259.5t-74.5 378t74.5 376.5t208 258t303.5 92.5q169 0 302 -92.5t207 -258.5t74 -376q0 -211 -74 -378t-207 -259.5t-302 -92.5zM707 123q122 0 218.5 74t149.5 207t53 301q0 255 -117.5 417t-303.5 162t-305 -162t-119 -417
t119 -418.5t305 -163.5z" />
    <glyph glyph-name="one" unicode="1" horiz-adv-x="722" 
d="M369 0v1212l-246 -159l-70 118l346 236h129v-1407h-159z" />
    <glyph glyph-name="two" unicode="2" horiz-adv-x="1206" 
d="M100 0v133l514 438q148 126 214.5 233t66.5 212q0 123 -87 197.5t-206 74.5q-217 0 -377 -219l-112 92q191 271 495 271q188 0 318.5 -115t130.5 -299q0 -142 -76.5 -267.5t-255.5 -279.5l-369 -319h715v-152h-971z" />
    <glyph glyph-name="three" unicode="3" horiz-adv-x="1200" 
d="M594 -25q-165 0 -297.5 67t-214.5 175l111 105q72 -93 174.5 -147t226.5 -54q148 0 238 74t90 194q0 122 -97 186t-266 64h-149v147l151 -2q145 -2 237.5 64.5t92.5 183.5q0 110 -89 182t-222 72q-111 0 -199 -51t-168 -148l-107 97q186 248 482 248q202 0 333.5 -106.5
t131.5 -274.5q0 -127 -77 -211t-196 -119q57 -13 108 -39t96.5 -66.5t72 -101t26.5 -133.5q0 -178 -135.5 -292t-353.5 -114z" />
    <glyph glyph-name="four" unicode="4" horiz-adv-x="1275" 
d="M805 0v342h-703l-20 133l698 932h185v-920h211v-145h-211v-342h-160zM264 487h541v727z" />
    <glyph glyph-name="five" unicode="5" horiz-adv-x="1226" 
d="M610 -25q-298 0 -495 224l104 116q180 -196 397 -196q145 0 238.5 89t93.5 224t-94 219t-242 84q-169 0 -313 -108l-117 57l21 723h831v-152h-676l-14 -473q142 95 301 95q96 0 180 -30t147.5 -84.5t100.5 -138.5t37 -186q0 -207 -140.5 -335t-359.5 -128z" />
    <glyph glyph-name="six" unicode="6" horiz-adv-x="1275" 
d="M682 879q130 0 235.5 -50.5t170.5 -152t65 -236.5q0 -198 -139.5 -331.5t-356.5 -133.5q-139 0 -243.5 54t-167 151.5t-93 223t-30.5 278.5q0 155 44.5 294t120 239t181 158.5t223.5 58.5q225 0 400 -168l-88 -125q-73 72 -147 109.5t-169 37.5q-111 0 -203.5 -80
t-146 -219t-53.5 -305v-18q65 102 169 158.5t228 56.5zM655 113q101 0 179.5 47.5t117.5 119.5t39 152q0 141 -96.5 225t-241.5 84q-133 0 -228.5 -72t-121.5 -190q32 -168 121 -267t231 -99z" />
    <glyph glyph-name="seven" unicode="7" horiz-adv-x="1228" 
d="M283 0l600 1255h-762v152h952v-121l-606 -1286h-184z" />
    <glyph glyph-name="eight" unicode="8" horiz-adv-x="1241" 
d="M621 -25q-145 0 -262 48.5t-185 138.5t-68 207q0 126 87.5 220t224.5 138q-127 48 -201 132t-74 200q0 85 40.5 156.5t107.5 118t152.5 72.5t177.5 26q127 0 235.5 -44.5t176 -131.5t67.5 -199q0 -120 -77 -203t-198 -127q136 -46 223 -139t87 -219q0 -117 -68.5 -207.5
t-185 -138.5t-260.5 -48zM621 791q54 3 108 20.5t101.5 47.5t77.5 78t30 105q0 105 -92 174.5t-225 69.5t-224.5 -69.5t-91.5 -174.5q0 -58 30 -106.5t78.5 -78t101.5 -46.5t106 -20zM621 121q149 0 250.5 72t101.5 186q0 61 -34 113.5t-87 85.5t-113.5 52t-117.5 21
q-56 -2 -116.5 -21t-114 -52t-88 -85.5t-34.5 -113.5q0 -114 102 -186t251 -72z" />
    <glyph glyph-name="nine" unicode="9" horiz-adv-x="1275" 
d="M618 1432q139 0 243.5 -54t167.5 -151.5t93.5 -223t30.5 -278.5q0 -155 -44.5 -294t-120 -239t-181 -158.5t-223.5 -58.5q-225 0 -400 168l88 125q73 -72 147 -109.5t169 -37.5q111 0 203.5 80t146 219t53.5 305v18q-65 -102 -169 -158.5t-228 -56.5q-130 0 -235.5 50.5
t-170.5 152t-65 236.5q0 198 139 331.5t356 133.5zM623 666q133 0 228.5 72t121.5 190q-32 168 -121 267t-231 99q-101 0 -179.5 -47.5t-117.5 -119.5t-39 -152q0 -141 96.5 -225t241.5 -84z" />
    <glyph glyph-name="colon" unicode=":" horiz-adv-x="518" 
d="M262 825q-47 0 -79.5 33.5t-32.5 79.5q0 44 33 76.5t79 32.5q44 0 76.5 -33t32.5 -76q0 -46 -32.5 -79.5t-76.5 -33.5zM262 -25q-47 0 -79.5 33.5t-32.5 79.5q0 44 33 76.5t79 32.5q44 0 76.5 -33t32.5 -76q0 -46 -32.5 -79.5t-76.5 -33.5z" />
    <glyph glyph-name="semicolon" unicode=";" horiz-adv-x="540" 
d="M270 825q-47 0 -79.5 33.5t-32.5 79.5q0 44 33 76.5t79 32.5q44 0 76.5 -33t32.5 -76q0 -46 -32.5 -79.5t-76.5 -33.5zM238 -272l-76 57q81 93 106 190q-45 0 -77.5 33.5t-32.5 79.5q0 44 32 76.5t80 32.5q57 0 91 -46t34 -118q0 -62 -33 -126.5t-124 -178.5z" />
    <glyph glyph-name="less" unicode="&#x3c;" horiz-adv-x="1200" 
d="M1044 180l-931 463v121l931 463v-144l-780 -378l780 -379v-146z" />
    <glyph glyph-name="equal" unicode="=" horiz-adv-x="1214" 
d="M137 834v151h940v-151h-940zM137 383v152h940v-152h-940z" />
    <glyph glyph-name="greater" unicode="&#x3e;" horiz-adv-x="1200" 
d="M156 180v146l780 379l-780 378v144l931 -463v-121z" />
    <glyph glyph-name="question" unicode="?" horiz-adv-x="1038" 
d="M377 395v383q179 15 294 89.5t115 174.5q0 99 -76 171.5t-200 72.5q-108 0 -191.5 -51t-158.5 -143l-105 104q191 236 463 236q191 0 310.5 -107.5t119.5 -267.5q0 -137 -114.5 -249.5t-294.5 -150.5v-262h-162zM459 -25q-47 0 -80 33.5t-33 79.5q0 43 33 76t80 33
q44 0 76 -33t32 -76q0 -46 -32 -79.5t-76 -33.5z" />
    <glyph glyph-name="at" unicode="@" horiz-adv-x="1804" 
d="M872 -238q-208 0 -388.5 104t-287 281.5t-106.5 382.5q0 170 69 327.5t184 272.5t273.5 183.5t329.5 68.5q154 0 296 -59t245.5 -157t165 -233t61.5 -280q0 -120 -32 -217t-85 -155.5t-117.5 -89.5t-133.5 -31q-95 0 -157 47t-79 129q-61 -79 -146.5 -127.5t-185.5 -48.5
q-149 0 -244.5 98t-95.5 256q0 104 41 200.5t108 164t153.5 107.5t174.5 40q102 0 173 -46.5t108 -119.5l27 135l137 -10q-15 -76 -35 -179.5t-31 -159t-22.5 -115.5t-16 -92.5t-4.5 -47.5q0 -64 36.5 -99.5t98.5 -35.5q45 0 88 22.5t81 67.5t61.5 124.5t23.5 182.5
q0 131 -56 252.5t-150 209.5t-223.5 141t-268.5 53q-155 0 -298 -62.5t-247 -167t-166.5 -248.5t-62.5 -299q0 -112 36.5 -218t102.5 -192t153.5 -151t195.5 -101t221 -36q126 0 228 29t214 96l37 -55q-119 -75 -232 -108.5t-252 -33.5zM815 281q140 0 230 100.5t106 255.5
q12 126 -43 197t-174 71q-141 0 -244.5 -114.5t-103.5 -268.5q0 -109 62.5 -175t166.5 -66z" />
    <glyph glyph-name="A" unicode="A" horiz-adv-x="1546" 
d="M1307 0l-142 319h-784l-141 -319h-174l620 1407h174l621 -1407h-174zM446 471h654l-326 739z" />
    <glyph glyph-name="B" unicode="B" horiz-adv-x="1396" 
d="M193 0v1407h645q170 0 278.5 -98t108.5 -252q0 -107 -50 -178.5t-151 -130.5q123 -62 189.5 -155.5t66.5 -207.5q0 -169 -117.5 -277t-300.5 -108h-669zM352 811h445q117 0 191.5 63.5t74.5 161.5q0 99 -74.5 162.5t-191.5 63.5h-445v-451zM352 145h469q130 0 213.5 73.5
t83.5 187.5t-83.5 187t-213.5 73h-469v-521z" />
    <glyph glyph-name="C" unicode="C" horiz-adv-x="1392" 
d="M827 -25q-191 0 -357.5 99.5t-265 268t-98.5 362.5q0 145 58.5 279.5t156 232.5t230.5 156.5t276 58.5q144 0 275 -56.5t231 -158.5l-108 -111q-78 84 -181.5 131t-216.5 47q-149 0 -278 -79t-205 -212.5t-76 -287.5q0 -116 45 -223.5t120.5 -186t179 -125.5t214.5 -47
q113 0 216.5 47t181.5 131l108 -111q-101 -101 -232 -158t-274 -57z" />
    <glyph glyph-name="D" unicode="D" horiz-adv-x="1560" 
d="M193 0v1407h475q220 0 394 -89t271 -249.5t97 -363.5q0 -204 -97 -364.5t-271 -250.5t-394 -90h-475zM352 145h316q264 0 432 157t168 403q0 161 -76 288t-213 198t-311 71h-316v-1117z" />
    <glyph glyph-name="E" unicode="E" horiz-adv-x="1284" 
d="M1171 1255h-847v-462h763v-152h-763v-489h847v-152h-1009v1407h1009v-152z" />
    <glyph glyph-name="F" unicode="F" horiz-adv-x="1247" 
d="M1171 1255h-847v-462h763v-152h-763v-641h-162v1407h1009v-152z" />
    <glyph glyph-name="G" unicode="G" horiz-adv-x="1525" 
d="M811 590v151h563v-551q-97 -97 -248 -156t-299 -59q-191 0 -357.5 99.5t-265 268t-98.5 362.5q0 145 58.5 279.5t156 232.5t230.5 156.5t276 58.5q148 0 299 -58.5t248 -156.5l-108 -111q-75 80 -198 129t-241 49q-149 0 -278 -79t-205 -212.5t-76 -287.5
q0 -116 45 -223.5t120.5 -186t179 -125.5t214.5 -47q98 0 203.5 35.5t183.5 95.5v336h-403z" />
    <glyph glyph-name="H" unicode="H" horiz-adv-x="1472" 
d="M1151 1407h160v-1407h-160v641h-829v-641h-160v1407h160v-614h829v614z" />
    <glyph glyph-name="I" unicode="I" horiz-adv-x="483" 
d="M162 0v1407h160v-1407h-160z" />
    <glyph glyph-name="J" unicode="J" horiz-adv-x="1105" 
d="M485 -25q-125 0 -246.5 65.5t-185.5 168.5l117 115q41 -89 129.5 -146t185.5 -57q125 0 205 94.5t80 243.5v948h160v-948q0 -212 -125 -348t-320 -136z" />
    <glyph glyph-name="K" unicode="K" horiz-adv-x="1351" 
d="M188 0v1407h160v-778l713 778h211l-592 -643l631 -764h-207l-535 655l-221 -233v-422h-160z" />
    <glyph glyph-name="L" unicode="L" horiz-adv-x="1136" 
d="M299 152h768v-152h-928v1407h160v-1255z" />
    <glyph glyph-name="M" unicode="M" horiz-adv-x="1748" 
d="M193 0v1407h159l522 -981l523 981h159v-1407h-159v1063l-523 -981l-522 981v-1063h-159z" />
    <glyph glyph-name="N" unicode="N" horiz-adv-x="1576" 
d="M193 0v1407h159l873 -1145v1145h159v-1407h-159l-873 1145v-1145h-159z" />
    <glyph glyph-name="O" unicode="O" horiz-adv-x="1652" 
d="M827 -25q-191 0 -357.5 99.5t-265 268t-98.5 362.5q0 145 58.5 279.5t156 232.5t230.5 156.5t276 58.5q144 0 277 -58.5t229.5 -156.5t154.5 -232.5t58 -279.5q0 -194 -97.5 -362.5t-263.5 -268t-358 -99.5zM827 123q111 0 214.5 47t178 125.5t119.5 186t45 223.5
q0 154 -75.5 287.5t-204 212.5t-277.5 79t-278 -79t-205 -212.5t-76 -287.5q0 -116 45 -223.5t120.5 -186t179 -125.5t214.5 -47z" />
    <glyph glyph-name="P" unicode="P" horiz-adv-x="1318" 
d="M162 0v1407h571q220 0 369 -127.5t149 -323.5q0 -129 -68.5 -232.5t-187 -160.5t-262.5 -57h-411v-506h-160zM322 657h383q174 0 279.5 80t105.5 219t-105.5 219t-279.5 80h-383v-598z" />
    <glyph glyph-name="Q" unicode="Q" horiz-adv-x="1652" 
d="M1546 705q0 -249 -157 -449l157 -137l-102 -119l-164 143q-202 -168 -453 -168q-191 0 -357.5 99.5t-265 268t-98.5 362.5q0 145 58.5 279.5t156 232.5t230.5 156.5t276 58.5q144 0 277 -58.5t229.5 -156.5t154.5 -232.5t58 -279.5zM827 123q186 0 336 121l-219 190
l103 119l225 -195q112 154 112 347q0 154 -75.5 287.5t-204 212.5t-277.5 79t-278 -79t-205 -212.5t-76 -287.5q0 -116 45 -223.5t120.5 -186t179 -125.5t214.5 -47z" />
    <glyph glyph-name="R" unicode="R" horiz-adv-x="1331" 
d="M1251 956q0 -163 -106.5 -281.5t-276.5 -154.5l365 -520h-182l-357 506h-372v-506h-160v1407h571q220 0 369 -127.5t149 -323.5zM322 1255v-598h383q174 0 279.5 80t105.5 219t-105.5 219t-279.5 80h-383z" />
    <glyph glyph-name="S" unicode="S" horiz-adv-x="1255" 
d="M649 -23q-328 0 -555 224l101 125q203 -203 460 -203q155 0 241.5 72t86.5 174q0 106 -89.5 163t-289.5 103q-91 21 -157.5 43t-126.5 54.5t-97 73t-58.5 97.5t-21.5 129q0 170 135 286t336 116q276 0 494 -201l-98 -125q-186 180 -404 180q-128 0 -214.5 -72.5
t-86.5 -171.5q0 -43 17.5 -77t46 -58.5t79.5 -46t103.5 -37t132.5 -34.5q109 -26 186.5 -56.5t143 -77.5t98.5 -115.5t33 -158.5q0 -176 -130 -291t-366 -115z" />
    <glyph glyph-name="T" unicode="T" horiz-adv-x="1290" 
d="M565 0v1255h-473v152h1106v-152h-473v-1255h-160z" />
    <glyph glyph-name="U" unicode="U" horiz-adv-x="1527" 
d="M764 -25q-258 0 -423 171t-165 438v823h160v-823q0 -203 120.5 -333t307.5 -130t307.5 130t120.5 333v823h160v-823q0 -267 -165 -438t-423 -171z" />
    <glyph glyph-name="V" unicode="V" horiz-adv-x="1546" 
d="M1307 1407h174l-621 -1407h-174l-620 1407h174l534 -1210z" />
    <glyph glyph-name="W" unicode="W" horiz-adv-x="2213" 
d="M557 0l-481 1407h180l389 -1139l373 1139h178l373 -1139l389 1139h180l-481 -1407h-158l-391 1198l-393 -1198h-158z" />
    <glyph glyph-name="X" unicode="X" horiz-adv-x="1427" 
d="M1350 1407l-539 -702l539 -705h-197l-440 575l-441 -575h-194l538 702l-538 705h196l441 -576l440 576h195z" />
    <glyph glyph-name="Y" unicode="Y" horiz-adv-x="1374" 
d="M604 0v573l-567 834h199l452 -682l457 682h192l-565 -834v-573h-168z" />
    <glyph glyph-name="Z" unicode="Z" horiz-adv-x="1308" 
d="M119 0v127l848 1128h-834v152h1053v-127l-850 -1128h858v-152h-1075z" />
    <glyph glyph-name="bracketleft" unicode="[" horiz-adv-x="749" 
d="M166 -236v1739h483v-117h-348v-1505h348v-117h-483z" />
    <glyph glyph-name="backslash" unicode="\" horiz-adv-x="849" 
d="M709 -152l-719 1674h174l719 -1674h-174z" />
    <glyph glyph-name="bracketright" unicode="]" horiz-adv-x="749" 
d="M100 -236v117h349v1505h-349v117h484v-1739h-484z" />
    <glyph glyph-name="asciicircum" unicode="^" horiz-adv-x="1003" 
d="M111 846l331 561h121l330 -561h-133l-258 448l-260 -448h-131z" />
    <glyph glyph-name="underscore" unicode="_" horiz-adv-x="1212" 
d="M-4 -291v137h1221v-137h-1221z" />
    <glyph glyph-name="grave" unicode="`" horiz-adv-x="667" 
d="M420 1180l-291 258l162 37l248 -295h-119z" />
    <glyph glyph-name="a" unicode="a" horiz-adv-x="1173" 
d="M586 1083q210 0 320 -119.5t110 -318.5v-645h-154v166q-55 -90 -159 -140.5t-214 -50.5q-170 0 -278.5 92t-108.5 246q0 155 121 254t295 99q157 0 344 -60v39q0 46 -7.5 87t-27.5 82.5t-51.5 71t-83 48t-117.5 18.5q-121 0 -309 -96l-61 125q204 102 381 102zM516 111
q115 0 216 58t130 163v162q-153 43 -319 43q-121 0 -206 -62t-85 -156q0 -96 74.5 -152t189.5 -56z" />
    <glyph glyph-name="b" unicode="b" 
d="M709 1083q210 0 348.5 -155.5t138.5 -397.5q0 -243 -138.5 -399t-348.5 -156q-125 0 -224.5 59t-160.5 165v-199h-154v1432h154v-572q61 106 160 164.5t225 58.5zM680 113q155 0 254.5 117t99.5 300t-99.5 299.5t-254.5 116.5q-157 0 -256.5 -116.5t-99.5 -299.5
t99.5 -300t256.5 -117z" />
    <glyph glyph-name="c" unicode="c" horiz-adv-x="1110" 
d="M647 -25q-109 0 -210.5 45t-175.5 119.5t-118.5 177t-44.5 213.5q0 148 75 275.5t201.5 202.5t272.5 75q106 0 203.5 -41t173.5 -114l-106 -105q-53 58 -123.5 90.5t-147.5 32.5q-158 0 -272.5 -123.5t-114.5 -292.5q0 -170 114.5 -293.5t272.5 -123.5q78 0 150 34
t127 95l106 -105q-76 -76 -175.5 -119t-207.5 -43z" />
    <glyph glyph-name="d" unicode="d" 
d="M983 1432h154v-1432h-154v199q-61 -106 -160.5 -165t-224.5 -59q-210 0 -348.5 156t-138.5 399q0 242 138.5 397.5t348.5 155.5q126 0 225 -58.5t160 -164.5v572zM627 113q157 0 256.5 117t99.5 300t-99.5 299.5t-256.5 116.5q-155 0 -255 -116.5t-100 -299.5t100 -300
t255 -117z" />
    <glyph glyph-name="e" unicode="e" horiz-adv-x="1218" 
d="M633 113q93 0 188.5 36.5t145.5 90.5l94 -101q-67 -73 -189.5 -118.5t-236.5 -45.5q-105 0 -203 41.5t-172 114t-118 177.5t-44 224q0 154 71 281t191 198.5t261 71.5q237 0 369 -165t132 -447h-866q18 -158 120.5 -258t256.5 -100zM627 946q-142 0 -244.5 -93
t-124.5 -245h713q-16 150 -104 244t-240 94z" />
    <glyph glyph-name="f" unicode="f" horiz-adv-x="718" 
d="M395 1204v-145h260v-137h-260v-922h-153v922h-166v137h166v145q0 119 72 195t186 76q109 0 196 -68l-75 -113q-40 43 -111 43q-47 0 -81 -38t-34 -95z" />
    <glyph glyph-name="g" unicode="g" horiz-adv-x="1302" 
d="M979 1059h154v-946q0 -204 -146 -334.5t-375 -130.5q-126 0 -240 39t-188 102l68 121q62 -59 152 -92t188 -33q183 0 285 86.5t102 241.5v172q-62 -98 -161.5 -152.5t-223.5 -54.5q-214 0 -351 141.5t-137 362.5t137 361t351 140q124 0 223.5 -54t161.5 -152v182z
M623 215q157 0 256.5 103t99.5 264q0 160 -99.5 262t-256.5 102q-155 0 -255 -102t-100 -262q0 -161 100 -264t255 -103z" />
    <glyph glyph-name="h" unicode="h" horiz-adv-x="1212" 
d="M659 1083q175 0 286.5 -114.5t111.5 -294.5v-674h-154v653q0 129 -73.5 211t-190.5 82q-133 0 -230.5 -81t-97.5 -191v-674h-153v1432h153v-543q46 86 141.5 140t206.5 54z" />
    <glyph glyph-name="i" unicode="i" horiz-adv-x="460" 
d="M231 1251q-42 0 -72 30.5t-30 72.5q0 40 30 70t72 30q41 0 71 -30t30 -70q0 -41 -30 -72t-71 -31zM154 0v1059h153v-1059h-153z" />
    <glyph glyph-name="j" unicode="j" horiz-adv-x="460" 
d="M231 1251q-42 0 -72 30.5t-30 72.5q0 40 30 70t72 30q41 0 71 -30t30 -70q0 -41 -30 -72t-71 -31zM49 -365q-91 0 -166 33l25 127q61 -22 131 -22q51 0 83 37t32 96v1153h153v-1153q0 -119 -72 -195t-186 -76z" />
    <glyph glyph-name="k" unicode="k" horiz-adv-x="1112" 
d="M1083 1059l-477 -486l451 -573h-193l-366 469l-191 -188v-281h-153v1432h153v-959l580 586h196z" />
    <glyph glyph-name="l" unicode="l" horiz-adv-x="464" 
d="M156 0v1432h153v-1432h-153z" />
    <glyph glyph-name="m" unicode="m" horiz-adv-x="1832" 
d="M1300 1083q166 0 271.5 -114.5t105.5 -294.5v-674h-153v653q0 129 -68.5 211t-175.5 82q-126 0 -206.5 -76t-80.5 -196v-674h-153v653q0 129 -68.5 211t-175.5 82q-126 0 -206.5 -76t-80.5 -196v-674h-153v1059h153v-156q40 84 121.5 132t185.5 48q118 0 208.5 -60.5
t133.5 -164.5q32 102 126.5 163.5t215.5 61.5z" />
    <glyph glyph-name="n" unicode="n" horiz-adv-x="1212" 
d="M659 1083q175 0 286.5 -114.5t111.5 -294.5v-674h-154v653q0 129 -73.5 211t-190.5 82q-133 0 -230.5 -81t-97.5 -191v-674h-153v1059h153v-170q46 86 141.5 140t206.5 54z" />
    <glyph glyph-name="o" unicode="o" horiz-adv-x="1292" 
d="M647 -25q-109 0 -210.5 45t-175.5 119.5t-118.5 177t-44.5 213.5q0 148 75 275.5t201.5 202.5t272.5 75q109 0 210.5 -44.5t175 -119t117.5 -176.5t44 -213t-44 -213.5t-117.5 -177.5t-175 -119.5t-210.5 -44.5zM647 113q157 0 271 123.5t114 293.5q0 83 -31 160t-83 133
t-123 89.5t-148 33.5q-158 0 -272.5 -123.5t-114.5 -292.5q0 -170 114.5 -293.5t272.5 -123.5z" />
    <glyph glyph-name="p" unicode="p" 
d="M709 1083q210 0 348.5 -155.5t138.5 -397.5q0 -243 -138.5 -399t-348.5 -156q-125 0 -224.5 59t-160.5 165v-551h-154v1411h154v-199q61 106 160 164.5t225 58.5zM680 113q155 0 254.5 117t99.5 300t-99.5 299.5t-254.5 116.5q-157 0 -256.5 -116.5t-99.5 -299.5
t99.5 -300t256.5 -117z" />
    <glyph glyph-name="q" unicode="q" 
d="M983 1059h154v-1411h-154v551q-61 -106 -160.5 -165t-224.5 -59q-210 0 -348.5 156t-138.5 399q0 242 138.5 397.5t348.5 155.5q126 0 225 -58.5t160 -164.5v199zM627 113q157 0 256.5 117t99.5 300t-99.5 299.5t-256.5 116.5q-155 0 -255 -116.5t-100 -299.5t100 -300
t255 -117z" />
    <glyph glyph-name="r" unicode="r" horiz-adv-x="790" 
d="M324 852q48 107 156 169t253 62v-137q-180 0 -294.5 -99.5t-114.5 -254.5v-592h-154v1059h154v-207z" />
    <glyph glyph-name="s" unicode="s" horiz-adv-x="1015" 
d="M530 -25q-112 0 -228 41.5t-210 116.5l80 113q183 -133 358 -133q105 0 169.5 45.5t64.5 120.5q0 24 -8 45t-19 36t-33.5 30t-40 24.5t-51 21t-54 18t-60.5 17.5q-195 56 -275 122.5t-80 178.5q0 142 104.5 226.5t266.5 84.5q199 0 379 -118l-74 -119q-156 100 -305 100
q-94 0 -155.5 -40.5t-61.5 -114.5q0 -65 56 -99t218 -86q47 -15 73.5 -23.5t69 -26t66.5 -32.5t54 -39t46 -50t27 -62t11 -78q0 -144 -110.5 -232t-277.5 -88z" />
    <glyph glyph-name="t" unicode="t" horiz-adv-x="757" 
d="M621 156l75 -113q-87 -68 -196 -68q-114 0 -186 76t-72 195v676h-166v137h166v291h153v-291h260v-137h-260v-676q0 -57 34 -95t81 -38q71 0 111 43z" />
    <glyph glyph-name="u" unicode="u" horiz-adv-x="1212" 
d="M901 1059h154v-1059h-154v170q-46 -86 -141.5 -140.5t-206.5 -54.5q-175 0 -286 115t-111 295v674h153v-653q0 -129 73.5 -211t190.5 -82q133 0 230.5 81t97.5 191v674z" />
    <glyph glyph-name="v" unicode="v" horiz-adv-x="1153" 
d="M506 0l-451 1059h172l353 -879l346 879h172l-445 -1059h-147z" />
    <glyph glyph-name="w" unicode="w" horiz-adv-x="1705" 
d="M426 0l-354 1059h164l264 -854l288 854h134l288 -854l265 854h163l-356 -1059h-145l-281 846l-285 -846h-145z" />
    <glyph glyph-name="x" unicode="x" horiz-adv-x="1128" 
d="M1063 0h-180l-318 422l-319 -422h-180l409 541l-393 518h180l303 -400l301 400h181l-392 -518z" />
    <glyph glyph-name="y" unicode="y" horiz-adv-x="1214" 
d="M313 -369q-93 0 -168 35l37 131q53 -26 125 -26q53 0 88.5 21t65.5 73l61 131l-461 1063h170l371 -881l350 881h166l-483 -1178q-54 -132 -132 -190t-190 -60z" />
    <glyph glyph-name="z" unicode="z" horiz-adv-x="1052" 
d="M111 0v121l624 792h-612v146h819v-121l-627 -793h631v-145h-835z" />
    <glyph glyph-name="braceleft" unicode="{" horiz-adv-x="806" 
d="M700 -340q-158 17 -248 59t-126.5 110t-36.5 177v289q0 103 -46.5 147.5t-154.5 44.5v113q109 0 155 46t46 149v286q0 110 37 178t127 109.5t247 58.5l13 -108q-94 -14 -148.5 -30.5t-88 -46t-44 -67.5t-10.5 -102l2 -295q0 -94 -38.5 -150t-115.5 -83q78 -28 116 -84.5
t38 -151.5l-2 -293q0 -86 23.5 -131t83.5 -71t184 -45z" />
    <glyph glyph-name="bar" unicode="|" horiz-adv-x="569" 
d="M223 -152v1674h123v-1674h-123z" />
    <glyph glyph-name="braceright" unicode="}" horiz-adv-x="806" 
d="M106 -340l-12 109q124 19 184 45t83.5 71t23.5 131l-2 293q0 95 38 151.5t116 84.5q-77 27 -115.5 83t-38.5 150l2 295q0 64 -10.5 102t-44 67.5t-88 46t-148.5 30.5l12 108q232 -26 322 -104.5t90 -241.5v-286q0 -103 46 -149t155 -46v-113q-108 0 -154.5 -44.5
t-46.5 -147.5v-289q0 -109 -37 -177t-127 -110t-248 -59z" />
    <glyph glyph-name="asciitilde" unicode="~" horiz-adv-x="911" 
d="M588 614q-41 0 -80.5 21t-65.5 47t-58 47t-60 21q-80 0 -103 -140l-94 15q31 243 197 243q41 0 80.5 -21t65.5 -46.5t58 -46.5t60 -21q40 0 65 33t37 106l94 -14q-31 -244 -196 -244z" />
    <glyph glyph-name="exclamdown" unicode="&#xa1;" horiz-adv-x="559" 
d="M276 1083q47 0 80 -33t33 -79q0 -43 -33 -76t-80 -33q-44 0 -76 33t-32 76q0 46 32 79t76 33zM330 664l39 -1012h-189l41 1012h109z" />
    <glyph glyph-name="cent" unicode="&#xa2;" horiz-adv-x="1110" 
d="M1030 137q-139 -139 -330 -160v-129h-159v138q-188 40 -315.5 194t-127.5 350t127.5 350t315.5 193v133h159v-125q186 -21 324 -153l-106 -105q-91 101 -218 119v-825q131 21 224 125zM260 530q0 -139 79.5 -250.5t201.5 -150.5v801q-121 -39 -201 -150.5t-80 -249.5z
" />
    <glyph glyph-name="sterling" unicode="&#xa3;" horiz-adv-x="1267" 
d="M406 152h768v-152h-1061v78l133 74v383h-127v137h127v276q0 212 124.5 348t319.5 136q141 0 261.5 -65.5t170.5 -168.5l-116 -115q-26 89 -114.5 146t-201.5 57q-125 0 -204.5 -94.5t-79.5 -243.5v-276h413v-137h-413v-383z" />
    <glyph glyph-name="yen" unicode="&#xa5;" horiz-adv-x="1374" 
d="M1337 1407l-497 -733h356v-137h-424v-164h424v-137h-424v-236h-168v236h-424v137h424v164h-424v137h357l-500 733h199l452 -682l457 682h192z" />
    <glyph glyph-name="dieresis" unicode="&#xa8;" horiz-adv-x="839" 
d="M223 1223q-39 0 -66.5 27.5t-27.5 66.5q0 37 27.5 65.5t66.5 28.5q38 0 66 -28.5t28 -65.5q0 -38 -28 -66t-66 -28zM616 1223q-39 0 -66.5 27.5t-27.5 66.5q0 37 27.5 65.5t66.5 28.5q38 0 66.5 -28.5t28.5 -65.5q0 -38 -28.5 -66t-66.5 -28z" />
    <glyph glyph-name="macron" unicode="&#xaf;" horiz-adv-x="892" 
d="M129 1217v112h635v-112h-635z" />
    <glyph glyph-name="acute" unicode="&#xb4;" horiz-adv-x="667" 
d="M129 1180l248 295l162 -37l-291 -258h-119z" />
    <glyph glyph-name="cedilla" unicode="&#xb8;" horiz-adv-x="638" 
d="M369 -92q62 0 101.5 -37.5t39.5 -97.5q0 -74 -57.5 -120t-143.5 -46q-109 0 -180 57l39 86q58 -47 133 -47q44 0 73 22t29 56q0 31 -20 50t-59 19q-42 0 -70 -22l-33 35l68 160h106l-49 -117q8 2 23 2z" />
    <glyph glyph-name="questiondown" unicode="&#xbf;" horiz-adv-x="1038" 
d="M580 1083q47 0 79.5 -33t32.5 -79q0 -43 -33 -76t-79 -33q-44 0 -76.5 33t-32.5 76q0 46 32.5 79t76.5 33zM662 664v-383q-179 -15 -294.5 -90t-115.5 -175q0 -99 76 -171t200 -72q108 0 192 51t159 143l104 -104q-191 -236 -463 -236q-191 0 -310.5 107.5t-119.5 267.5
q0 137 115 249t295 150v263h162z" />
    <glyph glyph-name="Agrave" unicode="&#xc0;" horiz-adv-x="1546" 
d="M836 1528h-119l-291 258l162 37zM1307 0l-142 319h-784l-141 -319h-174l620 1407h174l621 -1407h-174zM446 471h654l-326 739z" />
    <glyph glyph-name="Aacute" unicode="&#xc1;" horiz-adv-x="1546" 
d="M1120 1786l-291 -258h-118l247 295zM1307 0l-142 319h-784l-141 -319h-174l620 1407h174l621 -1407h-174zM446 471h654l-326 739z" />
    <glyph glyph-name="Acircumflex" unicode="&#xc2;" horiz-adv-x="1546" 
d="M772 1704l-160 -176h-116l204 280h144l209 -280h-119zM1307 0l-142 319h-784l-141 -319h-174l620 1407h174l621 -1407h-174zM446 471h654l-326 739z" />
    <glyph glyph-name="Atilde" unicode="&#xc3;" horiz-adv-x="1546" 
d="M639 1661q-40 0 -65 -33t-37 -106l-95 14q31 244 197 244q41 0 80.5 -21t65.5 -46.5t58 -46.5t60 -21q80 0 103 139l94 -15q-31 -243 -197 -243q-41 0 -80.5 21t-65.5 46.5t-58 46.5t-60 21zM1307 0l-142 319h-784l-141 -319h-174l620 1407h174l621 -1407h-174zM446 471
h654l-326 739z" />
    <glyph glyph-name="Adieresis" unicode="&#xc4;" horiz-adv-x="1546" 
d="M575 1571q-39 0 -66.5 27.5t-27.5 66.5q0 37 27.5 65.5t66.5 28.5q38 0 66.5 -28.5t28.5 -65.5q0 -38 -28.5 -66t-66.5 -28zM969 1571q-39 0 -67 27.5t-28 66.5q0 37 28 65.5t67 28.5q38 0 66 -28.5t28 -65.5q0 -38 -28 -66t-66 -28zM1307 0l-142 319h-784l-141 -319
h-174l620 1407h174l621 -1407h-174zM446 471h654l-326 739z" />
    <glyph glyph-name="Aring" unicode="&#xc5;" horiz-adv-x="1546" 
d="M772 1554q-88 0 -149.5 61.5t-61.5 149.5t61.5 149.5t149.5 61.5t149.5 -61.5t61.5 -149.5t-61.5 -149.5t-149.5 -61.5zM772 1886q-50 0 -85.5 -36t-35.5 -85t35.5 -84.5t85.5 -35.5t85.5 35.5t35.5 84.5t-35.5 85t-85.5 36zM1307 0l-142 319h-784l-141 -319h-174
l620 1407h174l621 -1407h-174zM446 471h654l-326 739z" />
    <glyph glyph-name="AE" unicode="&#xc6;" horiz-adv-x="2097" 
d="M1985 1255h-848v-462h764v-152h-764v-489h848v-152h-1010v319h-541l-184 -319h-184l811 1407h1108v-152zM522 471h453v784z" />
    <glyph glyph-name="Ccedilla" unicode="&#xc7;" horiz-adv-x="1392" 
d="M1333 190q-94 -94 -215.5 -151t-255.5 -64l-28 -69q8 2 22 2q62 0 101.5 -37.5t39.5 -97.5q0 -74 -57 -120t-143 -46q-110 0 -181 57l39 86q58 -47 133 -47q44 0 73.5 22t29.5 56q0 31 -20 50t-60 19q-42 0 -70 -22l-32 35l49 117q-177 18 -326.5 120t-237.5 262.5
t-88 342.5q0 145 58.5 279.5t156 232.5t230.5 156.5t276 58.5q144 0 275 -56.5t231 -158.5l-108 -111q-78 84 -181.5 131t-216.5 47q-149 0 -278 -79t-205 -212.5t-76 -287.5q0 -116 45 -223.5t120.5 -186t179 -125.5t214.5 -47q113 0 216.5 47t181.5 131z" />
    <glyph glyph-name="Egrave" unicode="&#xc8;" horiz-adv-x="1284" 
d="M811 1528h-119l-291 258l162 37zM1171 1255h-847v-462h763v-152h-763v-489h847v-152h-1009v1407h1009v-152z" />
    <glyph glyph-name="Eacute" unicode="&#xc9;" horiz-adv-x="1284" 
d="M913 1786l-290 -258h-119l248 295zM1171 1255h-847v-462h763v-152h-763v-489h847v-152h-1009v1407h1009v-152z" />
    <glyph glyph-name="Ecircumflex" unicode="&#xca;" horiz-adv-x="1284" 
d="M668 1704l-160 -176h-117l205 280h143l209 -280h-119zM1171 1255h-847v-462h763v-152h-763v-489h847v-152h-1009v1407h1009v-152z" />
    <glyph glyph-name="Edieresis" unicode="&#xcb;" horiz-adv-x="1284" 
d="M471 1571q-39 0 -66.5 27.5t-27.5 66.5q0 37 27.5 65.5t66.5 28.5q38 0 66 -28.5t28 -65.5q0 -38 -28 -66t-66 -28zM864 1571q-39 0 -66.5 27.5t-27.5 66.5q0 37 27.5 65.5t66.5 28.5q38 0 66 -28.5t28 -65.5q0 -38 -28 -66t-66 -28zM1171 1255h-847v-462h763v-152h-763
v-489h847v-152h-1009v1407h1009v-152z" />
    <glyph glyph-name="Igrave" unicode="&#xcc;" horiz-adv-x="483" 
d="M184 1528l-290 258l161 37l248 -295h-119zM162 0v1407h160v-1407h-160z" />
    <glyph glyph-name="Iacute" unicode="&#xcd;" horiz-adv-x="483" 
d="M180 1528l248 295l162 -37l-291 -258h-119zM162 0v1407h160v-1407h-160z" />
    <glyph glyph-name="Icircumflex" unicode="&#xce;" horiz-adv-x="483" 
d="M-35 1528l205 280h143l209 -280h-119l-161 176l-160 -176h-117zM162 0v1407h160v-1407h-160z" />
    <glyph glyph-name="Idieresis" unicode="&#xcf;" horiz-adv-x="483" 
d="M45 1571q-39 0 -66.5 27.5t-27.5 66.5q0 37 27.5 65.5t66.5 28.5q38 0 66 -28.5t28 -65.5q0 -38 -28 -66t-66 -28zM438 1571q-39 0 -66.5 27.5t-27.5 66.5q0 37 27.5 65.5t66.5 28.5q38 0 66 -28.5t28 -65.5q0 -38 -28 -66t-66 -28zM162 0v1407h160v-1407h-160z" />
    <glyph glyph-name="Eth" unicode="&#xd0;" horiz-adv-x="1595" 
d="M702 1407q220 0 394 -89t271 -249.5t97 -363.5q0 -204 -97 -364.5t-271 -250.5t-394 -90h-475v641h-141v152h141v614h475zM702 145q264 0 432.5 157t168.5 403q0 161 -76.5 288t-213.5 198t-311 71h-315v-469h414l-2 -152h-412v-496h315z" />
    <glyph glyph-name="Ntilde" unicode="&#xd1;" horiz-adv-x="1576" 
d="M920 1526q-41 0 -80.5 21t-66 46.5t-58.5 46.5t-60 21q-40 0 -65 -33t-37 -106l-94 14q31 244 196 244q41 0 80.5 -21t66 -46.5t58.5 -46.5t60 -21q40 0 65 33t37 106l94 -15q-31 -243 -196 -243zM193 0v1407h159l873 -1145v1145h159v-1407h-159l-873 1145v-1145h-159z
" />
    <glyph glyph-name="Ograve" unicode="&#xd2;" horiz-adv-x="1652" 
d="M774 1528l-291 258l162 37l248 -295h-119zM827 -25q-191 0 -357.5 99.5t-265 268t-98.5 362.5q0 145 58.5 279.5t156 232.5t230.5 156.5t276 58.5q144 0 277 -58.5t229.5 -156.5t154.5 -232.5t58 -279.5q0 -194 -97.5 -362.5t-263.5 -268t-358 -99.5zM827 123
q111 0 214.5 47t178 125.5t119.5 186t45 223.5q0 154 -75.5 287.5t-204 212.5t-277.5 79t-278 -79t-205 -212.5t-76 -287.5q0 -116 45 -223.5t120.5 -186t179 -125.5t214.5 -47z" />
    <glyph glyph-name="Oacute" unicode="&#xd3;" horiz-adv-x="1652" 
d="M766 1528l248 295l162 -37l-291 -258h-119zM827 -25q-191 0 -357.5 99.5t-265 268t-98.5 362.5q0 145 58.5 279.5t156 232.5t230.5 156.5t276 58.5q144 0 277 -58.5t229.5 -156.5t154.5 -232.5t58 -279.5q0 -194 -97.5 -362.5t-263.5 -268t-358 -99.5zM827 123
q111 0 214.5 47t178 125.5t119.5 186t45 223.5q0 154 -75.5 287.5t-204 212.5t-277.5 79t-278 -79t-205 -212.5t-76 -287.5q0 -116 45 -223.5t120.5 -186t179 -125.5t214.5 -47z" />
    <glyph glyph-name="Ocircumflex" unicode="&#xd4;" horiz-adv-x="1652" 
d="M551 1528l205 280h143l209 -280h-119l-162 176l-159 -176h-117zM827 -25q-191 0 -357.5 99.5t-265 268t-98.5 362.5q0 145 58.5 279.5t156 232.5t230.5 156.5t276 58.5q144 0 277 -58.5t229.5 -156.5t154.5 -232.5t58 -279.5q0 -194 -97.5 -362.5t-263.5 -268t-358 -99.5
zM827 123q111 0 214.5 47t178 125.5t119.5 186t45 223.5q0 154 -75.5 287.5t-204 212.5t-277.5 79t-278 -79t-205 -212.5t-76 -287.5q0 -116 45 -223.5t120.5 -186t179 -125.5t214.5 -47z" />
    <glyph glyph-name="Otilde" unicode="&#xd5;" horiz-adv-x="1652" 
d="M958 1526q-41 0 -80.5 21t-65.5 46.5t-58 46.5t-60 21q-40 0 -65 -33t-37 -106l-94 14q31 244 196 244q41 0 80.5 -21t65.5 -46.5t58 -46.5t60 -21q80 0 103 139l94 -15q-31 -243 -197 -243zM827 -25q-191 0 -357.5 99.5t-265 268t-98.5 362.5q0 145 58.5 279.5
t156 232.5t230.5 156.5t276 58.5q144 0 277 -58.5t229.5 -156.5t154.5 -232.5t58 -279.5q0 -194 -97.5 -362.5t-263.5 -268t-358 -99.5zM827 123q111 0 214.5 47t178 125.5t119.5 186t45 223.5q0 154 -75.5 287.5t-204 212.5t-277.5 79t-278 -79t-205 -212.5t-76 -287.5
q0 -116 45 -223.5t120.5 -186t179 -125.5t214.5 -47z" />
    <glyph glyph-name="Odieresis" unicode="&#xd6;" horiz-adv-x="1652" 
d="M631 1571q-39 0 -66.5 27.5t-27.5 66.5q0 37 27.5 65.5t66.5 28.5q38 0 66 -28.5t28 -65.5q0 -38 -28 -66t-66 -28zM1024 1571q-39 0 -66.5 27.5t-27.5 66.5q0 37 27.5 65.5t66.5 28.5q38 0 66 -28.5t28 -65.5q0 -38 -28 -66t-66 -28zM827 -25q-191 0 -357.5 99.5
t-265 268t-98.5 362.5q0 145 58.5 279.5t156 232.5t230.5 156.5t276 58.5q144 0 277 -58.5t229.5 -156.5t154.5 -232.5t58 -279.5q0 -194 -97.5 -362.5t-263.5 -268t-358 -99.5zM827 123q111 0 214.5 47t178 125.5t119.5 186t45 223.5q0 154 -75.5 287.5t-204 212.5
t-277.5 79t-278 -79t-205 -212.5t-76 -287.5q0 -116 45 -223.5t120.5 -186t179 -125.5t214.5 -47z" />
    <glyph glyph-name="multiply" unicode="&#xd7;" horiz-adv-x="1107" 
d="M940 963l-276 -277l276 -278l-109 -109l-276 279l-279 -279l-108 107l278 278l-278 279l108 108l279 -278l279 278z" />
    <glyph glyph-name="Oslash" unicode="&#xd8;" horiz-adv-x="1652" 
d="M1350 1200q93 -100 144.5 -227.5t51.5 -267.5q0 -194 -97.5 -362.5t-263.5 -268t-358 -99.5q-230 0 -424 144l-104 -119h-174l180 207q-94 100 -146.5 229t-52.5 269q0 145 58.5 279.5t156 232.5t230.5 156.5t276 58.5q234 0 424 -144l105 119h174zM268 705
q0 -105 37 -204t103 -177l743 850q-145 110 -324 110q-149 0 -278 -79t-205 -212.5t-76 -287.5zM827 123q111 0 214.5 47t178 125.5t119.5 186t45 223.5q0 213 -139 378l-741 -850q145 -110 323 -110z" />
    <glyph glyph-name="Ugrave" unicode="&#xd9;" horiz-adv-x="1527" 
d="M788 1528l-290 258l161 37l248 -295h-119zM764 -25q-258 0 -423 171t-165 438v823h160v-823q0 -203 120.5 -333t307.5 -130t307.5 130t120.5 333v823h160v-823q0 -267 -165 -438t-423 -171z" />
    <glyph glyph-name="Uacute" unicode="&#xda;" horiz-adv-x="1527" 
d="M600 1528l248 295l162 -37l-291 -258h-119zM764 -25q-258 0 -423 171t-165 438v823h160v-823q0 -203 120.5 -333t307.5 -130t307.5 130t120.5 333v823h160v-823q0 -267 -165 -438t-423 -171z" />
    <glyph glyph-name="Ucircumflex" unicode="&#xdb;" horiz-adv-x="1527" 
d="M487 1528l205 280h144l208 -280h-118l-162 176l-160 -176h-117zM764 -25q-258 0 -423 171t-165 438v823h160v-823q0 -203 120.5 -333t307.5 -130t307.5 130t120.5 333v823h160v-823q0 -267 -165 -438t-423 -171z" />
    <glyph glyph-name="Udieresis" unicode="&#xdc;" horiz-adv-x="1527" 
d="M567 1571q-39 0 -66.5 27.5t-27.5 66.5q0 37 27.5 65.5t66.5 28.5q38 0 66.5 -28.5t28.5 -65.5q0 -38 -28.5 -66t-66.5 -28zM961 1571q-39 0 -67 27.5t-28 66.5q0 37 28 65.5t67 28.5q38 0 66 -28.5t28 -65.5q0 -38 -28 -66t-66 -28zM764 -25q-258 0 -423 171t-165 438
v823h160v-823q0 -203 120.5 -333t307.5 -130t307.5 130t120.5 333v823h160v-823q0 -267 -165 -438t-423 -171z" />
    <glyph glyph-name="Yacute" unicode="&#xdd;" horiz-adv-x="1374" 
d="M524 1528l248 295l162 -37l-291 -258h-119zM604 0v573l-567 834h199l452 -682l457 682h192l-565 -834v-573h-168z" />
    <glyph glyph-name="Thorn" unicode="&#xde;" horiz-adv-x="1318" 
d="M162 0v1407h164v-248h407q144 0 262.5 -57t187 -160.5t68.5 -232.5q0 -196 -149 -323.5t-369 -127.5h-411v-258h-160zM322 410h383q174 0 279.5 80t105.5 219t-105.5 219t-279.5 80h-383v-598z" />
    <glyph glyph-name="germandbls" unicode="&#xdf;" horiz-adv-x="1179" 
d="M172 0v1077q0 163 120 267t308 104q187 0 306.5 -104t119.5 -267q0 -212 -201 -329q123 -62 189.5 -155.5t66.5 -207.5q0 -169 -117 -277t-300 -108h-179v145h138q130 0 213.5 73.5t83.5 187.5t-83.5 187t-213.5 73h-138v145h113q115 0 190.5 72.5t75.5 173.5
q0 107 -74.5 176.5t-191.5 69.5t-191.5 -71t-74.5 -181v-1051h-160z" />
    <glyph glyph-name="agrave" unicode="&#xe0;" horiz-adv-x="1173" 
d="M743 1180h-118l-291 258l162 37zM586 1083q210 0 320 -119.5t110 -318.5v-645h-154v166q-55 -90 -159 -140.5t-214 -50.5q-170 0 -278.5 92t-108.5 246q0 155 121 254t295 99q157 0 344 -60v39q0 46 -7.5 87t-27.5 82.5t-51.5 71t-83 48t-117.5 18.5q-121 0 -309 -96
l-61 125q204 102 381 102zM516 111q115 0 216 58t130 163v162q-153 43 -319 43q-121 0 -206 -62t-85 -156q0 -96 74.5 -152t189.5 -56z" />
    <glyph glyph-name="aacute" unicode="&#xe1;" horiz-adv-x="1173" 
d="M846 1438l-291 -258h-119l248 295zM586 1083q210 0 320 -119.5t110 -318.5v-645h-154v166q-55 -90 -159 -140.5t-214 -50.5q-170 0 -278.5 92t-108.5 246q0 155 121 254t295 99q157 0 344 -60v39q0 46 -7.5 87t-27.5 82.5t-51.5 71t-83 48t-117.5 18.5q-121 0 -309 -96
l-61 125q204 102 381 102zM516 111q115 0 216 58t130 163v162q-153 43 -319 43q-121 0 -206 -62t-85 -156q0 -96 74.5 -152t189.5 -56z" />
    <glyph glyph-name="acircumflex" unicode="&#xe2;" horiz-adv-x="1173" 
d="M600 1356l-160 -176h-116l204 280h144l209 -280h-119zM586 1083q210 0 320 -119.5t110 -318.5v-645h-154v166q-55 -90 -159 -140.5t-214 -50.5q-170 0 -278.5 92t-108.5 246q0 155 121 254t295 99q157 0 344 -60v39q0 46 -7.5 87t-27.5 82.5t-51.5 71t-83 48t-117.5 18.5
q-121 0 -309 -96l-61 125q204 102 381 102zM516 111q115 0 216 58t130 163v162q-153 43 -319 43q-121 0 -206 -62t-85 -156q0 -96 74.5 -152t189.5 -56z" />
    <glyph glyph-name="atilde" unicode="&#xe3;" horiz-adv-x="1173" 
d="M467 1313q-40 0 -65 -33t-37 -106l-95 14q31 244 197 244q41 0 80.5 -21t65.5 -47t58 -47t60 -21q80 0 103 140l94 -15q-31 -243 -197 -243q-41 0 -80.5 21t-65.5 46.5t-58 46.5t-60 21zM586 1083q210 0 320 -119.5t110 -318.5v-645h-154v166q-55 -90 -159 -140.5
t-214 -50.5q-170 0 -278.5 92t-108.5 246q0 155 121 254t295 99q157 0 344 -60v39q0 46 -7.5 87t-27.5 82.5t-51.5 71t-83 48t-117.5 18.5q-121 0 -309 -96l-61 125q204 102 381 102zM516 111q115 0 216 58t130 163v162q-153 43 -319 43q-121 0 -206 -62t-85 -156
q0 -96 74.5 -152t189.5 -56z" />
    <glyph glyph-name="adieresis" unicode="&#xe4;" horiz-adv-x="1173" 
d="M403 1223q-39 0 -66.5 27.5t-27.5 66.5q0 37 27.5 65.5t66.5 28.5q38 0 66.5 -28.5t28.5 -65.5q0 -38 -28.5 -66t-66.5 -28zM797 1223q-39 0 -67 27.5t-28 66.5q0 37 28 65.5t67 28.5q38 0 66 -28.5t28 -65.5q0 -38 -28 -66t-66 -28zM586 1083q210 0 320 -119.5
t110 -318.5v-645h-154v166q-55 -90 -159 -140.5t-214 -50.5q-170 0 -278.5 92t-108.5 246q0 155 121 254t295 99q157 0 344 -60v39q0 46 -7.5 87t-27.5 82.5t-51.5 71t-83 48t-117.5 18.5q-121 0 -309 -96l-61 125q204 102 381 102zM516 111q115 0 216 58t130 163v162
q-153 43 -319 43q-121 0 -206 -62t-85 -156q0 -96 74.5 -152t189.5 -56z" />
    <glyph glyph-name="aring" unicode="&#xe5;" horiz-adv-x="1173" 
d="M600 1206q-88 0 -149.5 61.5t-61.5 149.5t61.5 149.5t149.5 61.5t149.5 -61.5t61.5 -149.5t-61.5 -149.5t-149.5 -61.5zM600 1538q-50 0 -85.5 -36t-35.5 -85t35.5 -85t85.5 -36t85.5 36t35.5 85t-35.5 85t-85.5 36zM586 1083q210 0 320 -119.5t110 -318.5v-645h-154v166
q-55 -90 -159 -140.5t-214 -50.5q-170 0 -278.5 92t-108.5 246q0 155 121 254t295 99q157 0 344 -60v39q0 46 -7.5 87t-27.5 82.5t-51.5 71t-83 48t-117.5 18.5q-121 0 -309 -96l-61 125q204 102 381 102zM516 111q115 0 216 58t130 163v162q-153 43 -319 43
q-121 0 -206 -62t-85 -156q0 -96 74.5 -152t189.5 -56z" />
    <glyph glyph-name="ae" unicode="&#xe6;" horiz-adv-x="1982" 
d="M1397 113q93 0 188.5 36.5t145.5 90.5l94 -101q-67 -73 -189.5 -118.5t-236.5 -45.5q-134 0 -253 65t-192 179q-67 -110 -186.5 -177t-257.5 -67q-192 0 -300 89t-108 249q0 155 121 254t295 99q157 0 344 -60v39q0 46 -7.5 87t-27.5 82.5t-51.5 71t-83 48t-117.5 18.5
q-121 0 -309 -96l-61 125q204 102 381 102q143 0 239.5 -56t143.5 -157q73 100 182 156.5t233 56.5q237 0 369.5 -165t132.5 -447h-866q18 -158 120.5 -258t256.5 -100zM1391 946q-142 0 -244.5 -93t-124.5 -245h713q-16 150 -104 244t-240 94zM537 111q132 0 228.5 90.5
t96.5 214.5v78q-153 43 -319 43q-121 0 -206 -62t-85 -156q0 -98 75.5 -153t209.5 -55z" />
    <glyph glyph-name="ccedilla" unicode="&#xe7;" horiz-adv-x="1110" 
d="M676 -92q62 0 101.5 -37.5t39.5 -97.5q0 -74 -57.5 -120t-143.5 -46q-109 0 -180 57l39 86q58 -47 133 -47q44 0 73.5 22t29.5 56q0 31 -20 50t-60 19q-42 0 -70 -22l-33 35l50 117q-98 14 -187 63t-153 122t-102 168t-38 197q0 148 75 275.5t201.5 202.5t272.5 75
q106 0 203.5 -41t173.5 -114l-106 -105q-53 58 -123.5 90.5t-147.5 32.5q-158 0 -272.5 -123.5t-114.5 -292.5q0 -170 114.5 -293.5t272.5 -123.5q78 0 150 34t127 95l106 -105q-148 -148 -346 -160l-31 -71q8 2 23 2z" />
    <glyph glyph-name="egrave" unicode="&#xe8;" horiz-adv-x="1218" 
d="M764 1180h-119l-291 258l162 37zM633 113q93 0 188.5 36.5t145.5 90.5l94 -101q-67 -73 -189.5 -118.5t-236.5 -45.5q-105 0 -203 41.5t-172 114t-118 177.5t-44 224q0 154 71 281t191 198.5t261 71.5q237 0 369 -165t132 -447h-866q18 -158 120.5 -258t256.5 -100z
M627 946q-142 0 -244.5 -93t-124.5 -245h713q-16 150 -104 244t-240 94z" />
    <glyph glyph-name="eacute" unicode="&#xe9;" horiz-adv-x="1218" 
d="M866 1438l-291 -258h-118l248 295zM633 113q93 0 188.5 36.5t145.5 90.5l94 -101q-67 -73 -189.5 -118.5t-236.5 -45.5q-105 0 -203 41.5t-172 114t-118 177.5t-44 224q0 154 71 281t191 198.5t261 71.5q237 0 369 -165t132 -447h-866q18 -158 120.5 -258t256.5 -100z
M627 946q-142 0 -244.5 -93t-124.5 -245h713q-16 150 -104 244t-240 94z" />
    <glyph glyph-name="ecircumflex" unicode="&#xea;" horiz-adv-x="1218" 
d="M621 1356l-160 -176h-117l205 280h143l209 -280h-119zM633 113q93 0 188.5 36.5t145.5 90.5l94 -101q-67 -73 -189.5 -118.5t-236.5 -45.5q-105 0 -203 41.5t-172 114t-118 177.5t-44 224q0 154 71 281t191 198.5t261 71.5q237 0 369 -165t132 -447h-866
q18 -158 120.5 -258t256.5 -100zM627 946q-142 0 -244.5 -93t-124.5 -245h713q-16 150 -104 244t-240 94z" />
    <glyph glyph-name="edieresis" unicode="&#xeb;" horiz-adv-x="1218" 
d="M424 1223q-39 0 -66.5 27.5t-27.5 66.5q0 37 27.5 65.5t66.5 28.5q38 0 66 -28.5t28 -65.5q0 -38 -28 -66t-66 -28zM817 1223q-39 0 -66.5 27.5t-27.5 66.5q0 37 27.5 65.5t66.5 28.5q38 0 66 -28.5t28 -65.5q0 -38 -28 -66t-66 -28zM633 113q93 0 188.5 36.5t145.5 90.5
l94 -101q-67 -73 -189.5 -118.5t-236.5 -45.5q-105 0 -203 41.5t-172 114t-118 177.5t-44 224q0 154 71 281t191 198.5t261 71.5q237 0 369 -165t132 -447h-866q18 -158 120.5 -258t256.5 -100zM627 946q-142 0 -244.5 -93t-124.5 -245h713q-16 150 -104 244t-240 94z" />
    <glyph glyph-name="igrave" unicode="&#xec;" horiz-adv-x="460" 
d="M174 1180l-291 258l162 37l248 -295h-119zM154 0v1059h153v-1059h-153z" />
    <glyph glyph-name="iacute" unicode="&#xed;" horiz-adv-x="460" 
d="M170 1180l248 295l162 -37l-291 -258h-119zM154 0v1059h153v-1059h-153z" />
    <glyph glyph-name="icircumflex" unicode="&#xee;" horiz-adv-x="460" 
d="M-45 1180l205 280h143l209 -280h-119l-162 176l-159 -176h-117zM154 0v1059h153v-1059h-153z" />
    <glyph glyph-name="idieresis" unicode="&#xef;" horiz-adv-x="460" 
d="M35 1223q-39 0 -66.5 27.5t-27.5 66.5q0 37 27.5 65.5t66.5 28.5q38 0 66 -28.5t28 -65.5q0 -38 -28 -66t-66 -28zM428 1223q-39 0 -66.5 27.5t-27.5 66.5q0 37 27.5 65.5t66.5 28.5q38 0 66 -28.5t28 -65.5q0 -38 -28 -66t-66 -28zM154 0v1059h153v-1059h-153z" />
    <glyph glyph-name="eth" unicode="&#xf0;" horiz-adv-x="1284" 
d="M799 1245q185 -171 273.5 -335.5t88.5 -358.5q0 -254 -144.5 -415t-371.5 -161q-229 0 -375.5 150t-146.5 383q0 224 134 368t343 144q202 0 342 -166q-85 165 -276 332l-250 -111l-56 127l187 82q-101 75 -166 119l156 63q100 -78 149 -118l203 90l55 -127zM645 115
q155 0 254.5 108.5t99.5 278.5q0 163 -99 273t-261 110q-157 0 -256.5 -106.5t-99.5 -272.5q0 -172 101 -281.5t261 -109.5z" />
    <glyph glyph-name="ntilde" unicode="&#xf1;" horiz-adv-x="1212" 
d="M508 1313q-40 0 -65 -33t-37 -106l-95 14q31 244 197 244q41 0 80.5 -21t65.5 -47t58 -47t60 -21q79 0 102 140l95 -15q-31 -243 -197 -243q-41 0 -80.5 21t-65.5 46.5t-58 46.5t-60 21zM659 1083q175 0 286.5 -114.5t111.5 -294.5v-674h-154v653q0 129 -73.5 211
t-190.5 82q-133 0 -230.5 -81t-97.5 -191v-674h-153v1059h153v-170q46 86 141.5 140t206.5 54z" />
    <glyph glyph-name="ograve" unicode="&#xf2;" horiz-adv-x="1292" 
d="M672 1180l-291 258l162 37l248 -295h-119zM647 -25q-109 0 -210.5 45t-175.5 119.5t-118.5 177t-44.5 213.5q0 148 75 275.5t201.5 202.5t272.5 75q109 0 210.5 -44.5t175 -119t117.5 -176.5t44 -213t-44 -213.5t-117.5 -177.5t-175 -119.5t-210.5 -44.5zM647 113
q157 0 271 123.5t114 293.5q0 83 -31 160t-83 133t-123 89.5t-148 33.5q-158 0 -272.5 -123.5t-114.5 -292.5q0 -170 114.5 -293.5t272.5 -123.5z" />
    <glyph glyph-name="oacute" unicode="&#xf3;" horiz-adv-x="1292" 
d="M483 1180l248 295l162 -37l-291 -258h-119zM647 -25q-109 0 -210.5 45t-175.5 119.5t-118.5 177t-44.5 213.5q0 148 75 275.5t201.5 202.5t272.5 75q109 0 210.5 -44.5t175 -119t117.5 -176.5t44 -213t-44 -213.5t-117.5 -177.5t-175 -119.5t-210.5 -44.5zM647 113
q157 0 271 123.5t114 293.5q0 83 -31 160t-83 133t-123 89.5t-148 33.5q-158 0 -272.5 -123.5t-114.5 -292.5q0 -170 114.5 -293.5t272.5 -123.5z" />
    <glyph glyph-name="ocircumflex" unicode="&#xf4;" horiz-adv-x="1292" 
d="M371 1180l204 280h144l209 -280h-119l-162 176l-160 -176h-116zM647 -25q-109 0 -210.5 45t-175.5 119.5t-118.5 177t-44.5 213.5q0 148 75 275.5t201.5 202.5t272.5 75q109 0 210.5 -44.5t175 -119t117.5 -176.5t44 -213t-44 -213.5t-117.5 -177.5t-175 -119.5
t-210.5 -44.5zM647 113q157 0 271 123.5t114 293.5q0 83 -31 160t-83 133t-123 89.5t-148 33.5q-158 0 -272.5 -123.5t-114.5 -292.5q0 -170 114.5 -293.5t272.5 -123.5z" />
    <glyph glyph-name="otilde" unicode="&#xf5;" horiz-adv-x="1292" 
d="M778 1178q-41 0 -80.5 21t-65.5 46.5t-58 46.5t-60 21q-40 0 -65 -33t-37 -106l-95 14q31 244 197 244q41 0 80.5 -21t65.5 -47t58 -47t60 -21q80 0 103 140l94 -15q-31 -243 -197 -243zM647 -25q-109 0 -210.5 45t-175.5 119.5t-118.5 177t-44.5 213.5q0 148 75 275.5
t201.5 202.5t272.5 75q109 0 210.5 -44.5t175 -119t117.5 -176.5t44 -213t-44 -213.5t-117.5 -177.5t-175 -119.5t-210.5 -44.5zM647 113q157 0 271 123.5t114 293.5q0 83 -31 160t-83 133t-123 89.5t-148 33.5q-158 0 -272.5 -123.5t-114.5 -292.5q0 -170 114.5 -293.5
t272.5 -123.5z" />
    <glyph glyph-name="odieresis" unicode="&#xf6;" horiz-adv-x="1292" 
d="M451 1223q-39 0 -67 27.5t-28 66.5q0 37 28 65.5t67 28.5q38 0 66 -28.5t28 -65.5q0 -38 -28 -66t-66 -28zM844 1223q-39 0 -66.5 27.5t-27.5 66.5q0 37 27.5 65.5t66.5 28.5q38 0 66 -28.5t28 -65.5q0 -38 -28 -66t-66 -28zM647 -25q-109 0 -210.5 45t-175.5 119.5
t-118.5 177t-44.5 213.5q0 148 75 275.5t201.5 202.5t272.5 75q109 0 210.5 -44.5t175 -119t117.5 -176.5t44 -213t-44 -213.5t-117.5 -177.5t-175 -119.5t-210.5 -44.5zM647 113q157 0 271 123.5t114 293.5q0 83 -31 160t-83 133t-123 89.5t-148 33.5q-158 0 -272.5 -123.5
t-114.5 -292.5q0 -170 114.5 -293.5t272.5 -123.5z" />
    <glyph glyph-name="divide" unicode="&#xf7;" horiz-adv-x="1214" 
d="M610 905q-47 0 -79.5 33.5t-32.5 79.5q0 43 32.5 75.5t79.5 32.5q44 0 76.5 -32.5t32.5 -75.5q0 -46 -32.5 -79.5t-76.5 -33.5zM137 608v152h940v-152h-940zM610 242q-47 0 -79.5 33t-32.5 79q0 44 33 76.5t79 32.5q44 0 76.5 -33t32.5 -76q0 -46 -32.5 -79t-76.5 -33z
" />
    <glyph glyph-name="oslash" unicode="&#xf8;" horiz-adv-x="1292" 
d="M1051 899q143 -159 143 -369q0 -111 -44 -213.5t-117.5 -177.5t-175 -119.5t-210.5 -44.5q-161 0 -303 95l-59 -70h-174l135 158q-70 75 -109 171.5t-39 200.5q0 148 75 275.5t201.5 202.5t272.5 75q162 0 305 -96l62 72h174zM260 530q0 -145 84 -256l514 603
q-98 69 -211 69q-158 0 -272.5 -123.5t-114.5 -292.5zM647 113q157 0 271 123.5t114 293.5q0 134 -80 252l-514 -602q95 -67 209 -67z" />
    <glyph glyph-name="ugrave" unicode="&#xf9;" horiz-adv-x="1212" 
d="M748 1180h-119l-291 258l162 37zM901 1059h154v-1059h-154v170q-46 -86 -141.5 -140.5t-206.5 -54.5q-175 0 -286 115t-111 295v674h153v-653q0 -129 73.5 -211t190.5 -82q133 0 230.5 81t97.5 191v674z" />
    <glyph glyph-name="uacute" unicode="&#xfa;" horiz-adv-x="1212" 
d="M850 1438l-291 -258h-119l248 295zM901 1059h154v-1059h-154v170q-46 -86 -141.5 -140.5t-206.5 -54.5q-175 0 -286 115t-111 295v674h153v-653q0 -129 73.5 -211t190.5 -82q133 0 230.5 81t97.5 191v674z" />
    <glyph glyph-name="ucircumflex" unicode="&#xfb;" horiz-adv-x="1212" 
d="M604 1356l-160 -176h-116l204 280h144l209 -280h-119zM901 1059h154v-1059h-154v170q-46 -86 -141.5 -140.5t-206.5 -54.5q-175 0 -286 115t-111 295v674h153v-653q0 -129 73.5 -211t190.5 -82q133 0 230.5 81t97.5 191v674z" />
    <glyph glyph-name="udieresis" unicode="&#xfc;" horiz-adv-x="1212" 
d="M408 1223q-40 0 -67.5 27.5t-27.5 66.5q0 37 28 65.5t67 28.5q38 0 66 -28.5t28 -65.5q0 -38 -28 -66t-66 -28zM801 1223q-39 0 -66.5 27.5t-27.5 66.5q0 37 27.5 65.5t66.5 28.5q38 0 66 -28.5t28 -65.5q0 -38 -28 -66t-66 -28zM901 1059h154v-1059h-154v170
q-46 -86 -141.5 -140.5t-206.5 -54.5q-175 0 -286 115t-111 295v674h153v-653q0 -129 73.5 -211t190.5 -82q133 0 230.5 81t97.5 191v674z" />
    <glyph glyph-name="yacute" unicode="&#xfd;" horiz-adv-x="1214" 
d="M438 1180l248 295l162 -37l-291 -258h-119zM313 -369q-93 0 -168 35l37 131q53 -26 125 -26q53 0 88.5 21t65.5 73l61 131l-461 1063h170l371 -881l350 881h166l-483 -1178q-54 -132 -132 -190t-190 -60z" />
    <glyph glyph-name="thorn" unicode="&#xfe;" 
d="M709 1083q210 0 348.5 -155.5t138.5 -397.5q0 -243 -138.5 -399t-348.5 -156q-125 0 -224.5 59t-160.5 165v-551h-154v1784h154v-572q61 106 160 164.5t225 58.5zM680 113q155 0 254.5 117t99.5 300t-99.5 299.5t-254.5 116.5q-157 0 -256.5 -116.5t-99.5 -299.5
t99.5 -300t256.5 -117z" />
    <glyph glyph-name="ydieresis" unicode="&#xff;" horiz-adv-x="1214" 
d="M406 1223q-40 0 -67.5 27.5t-27.5 66.5q0 37 28 65.5t67 28.5q38 0 66 -28.5t28 -65.5q0 -38 -28 -66t-66 -28zM799 1223q-39 0 -66.5 27.5t-27.5 66.5q0 37 27.5 65.5t66.5 28.5q38 0 66 -28.5t28 -65.5q0 -38 -28 -66t-66 -28zM313 -369q-93 0 -168 35l37 131
q53 -26 125 -26q53 0 88.5 21t65.5 73l61 131l-461 1063h170l371 -881l350 881h166l-483 -1178q-54 -132 -132 -190t-190 -60z" />
    <glyph glyph-name="Amacron" unicode="&#x100;" horiz-adv-x="1546" 
d="M1090 1677v-112h-635v112h635zM1307 0l-142 319h-784l-141 -319h-174l620 1407h174l621 -1407h-174zM446 471h654l-326 739z" />
    <glyph glyph-name="amacron" unicode="&#x101;" horiz-adv-x="1173" 
d="M918 1329v-112h-635v112h635zM586 1083q210 0 320 -119.5t110 -318.5v-645h-154v166q-55 -90 -159 -140.5t-214 -50.5q-170 0 -278.5 92t-108.5 246q0 155 121 254t295 99q157 0 344 -60v39q0 46 -7.5 87t-27.5 82.5t-51.5 71t-83 48t-117.5 18.5q-121 0 -309 -96
l-61 125q204 102 381 102zM516 111q115 0 216 58t130 163v162q-153 43 -319 43q-121 0 -206 -62t-85 -156q0 -96 74.5 -152t189.5 -56z" />
    <glyph glyph-name="Abreve" unicode="&#x102;" horiz-adv-x="1546" 
d="M1071 1677q-123 -123 -299 -123q-173 0 -299 123l96 97q42 -40 95.5 -63t107.5 -23t107.5 23t95.5 63zM1307 0l-142 319h-784l-141 -319h-174l620 1407h174l621 -1407h-174zM446 471h654l-326 739z" />
    <glyph glyph-name="abreve" unicode="&#x103;" horiz-adv-x="1173" 
d="M899 1329q-123 -123 -299 -123q-173 0 -299 123l96 96q42 -40 95.5 -63t107.5 -23t107.5 23t95.5 63zM586 1083q210 0 320 -119.5t110 -318.5v-645h-154v166q-55 -90 -159 -140.5t-214 -50.5q-170 0 -278.5 92t-108.5 246q0 155 121 254t295 99q157 0 344 -60v39
q0 46 -7.5 87t-27.5 82.5t-51.5 71t-83 48t-117.5 18.5q-121 0 -309 -96l-61 125q204 102 381 102zM516 111q115 0 216 58t130 163v162q-153 43 -319 43q-121 0 -206 -62t-85 -156q0 -96 74.5 -152t189.5 -56z" />
    <glyph glyph-name="Aogonek" unicode="&#x104;" horiz-adv-x="1546" 
d="M1577 -195l65 -100q-71 -59 -172 -59q-100 0 -161.5 59t-61.5 160q0 81 58 139l-140 315h-784l-141 -319h-174l620 1407h174l621 -1407q-52 0 -85.5 -33t-33.5 -84q0 -54 31 -85t88 -31q63 0 96 38zM446 471h654l-326 739z" />
    <glyph glyph-name="aogonek" unicode="&#x105;" horiz-adv-x="1173" 
d="M1112 -195l66 -100q-71 -59 -172 -59q-100 0 -162 59t-62 160q0 48 22.5 91t57.5 67v143q-55 -90 -159 -140.5t-214 -50.5q-170 0 -278.5 92t-108.5 246q0 155 121 254t295 99q157 0 344 -60v39q0 46 -7.5 87t-27.5 82.5t-51.5 71t-83 48t-117.5 18.5q-121 0 -309 -96
l-61 125q204 102 381 102q210 0 320 -119.5t110 -318.5v-645q-52 0 -85.5 -33t-33.5 -84q0 -54 31 -85t88 -31q63 0 96 38zM516 111q115 0 216 58t130 163v162q-153 43 -319 43q-121 0 -206 -62t-85 -156q0 -96 74.5 -152t189.5 -56z" />
    <glyph glyph-name="Cacute" unicode="&#x106;" horiz-adv-x="1392" 
d="M623 1528l247 295l162 -37l-291 -258h-118zM827 -25q-191 0 -357.5 99.5t-265 268t-98.5 362.5q0 145 58.5 279.5t156 232.5t230.5 156.5t276 58.5q144 0 275 -56.5t231 -158.5l-108 -111q-78 84 -181.5 131t-216.5 47q-149 0 -278 -79t-205 -212.5t-76 -287.5
q0 -116 45 -223.5t120.5 -186t179 -125.5t214.5 -47q113 0 216.5 47t181.5 131l108 -111q-101 -101 -232 -158t-274 -57z" />
    <glyph glyph-name="cacute" unicode="&#x107;" horiz-adv-x="1110" 
d="M442 1180l248 295l162 -37l-291 -258h-119zM647 -25q-109 0 -210.5 45t-175.5 119.5t-118.5 177t-44.5 213.5q0 148 75 275.5t201.5 202.5t272.5 75q106 0 203.5 -41t173.5 -114l-106 -105q-53 58 -123.5 90.5t-147.5 32.5q-158 0 -272.5 -123.5t-114.5 -292.5
q0 -170 114.5 -293.5t272.5 -123.5q78 0 150 34t127 95l106 -105q-76 -76 -175.5 -119t-207.5 -43z" />
    <glyph glyph-name="Ccaron" unicode="&#x10c;" horiz-adv-x="1392" 
d="M715 1528l-205 280h117l159 -176l162 176h119l-209 -280h-143zM827 -25q-191 0 -357.5 99.5t-265 268t-98.5 362.5q0 145 58.5 279.5t156 232.5t230.5 156.5t276 58.5q144 0 275 -56.5t231 -158.5l-108 -111q-78 84 -181.5 131t-216.5 47q-149 0 -278 -79t-205 -212.5
t-76 -287.5q0 -116 45 -223.5t120.5 -186t179 -125.5t214.5 -47q113 0 216.5 47t181.5 131l108 -111q-101 -101 -232 -158t-274 -57z" />
    <glyph glyph-name="ccaron" unicode="&#x10d;" horiz-adv-x="1110" 
d="M535 1180l-205 280h116l160 -176l162 176h119l-209 -280h-143zM647 -25q-109 0 -210.5 45t-175.5 119.5t-118.5 177t-44.5 213.5q0 148 75 275.5t201.5 202.5t272.5 75q106 0 203.5 -41t173.5 -114l-106 -105q-53 58 -123.5 90.5t-147.5 32.5q-158 0 -272.5 -123.5
t-114.5 -292.5q0 -170 114.5 -293.5t272.5 -123.5q78 0 150 34t127 95l106 -105q-76 -76 -175.5 -119t-207.5 -43z" />
    <glyph glyph-name="Dcaron" unicode="&#x10e;" horiz-adv-x="1560" 
d="M596 1528l-205 280h117l160 -176l161 176h119l-209 -280h-143zM193 0v1407h475q220 0 394 -89t271 -249.5t97 -363.5q0 -204 -97 -364.5t-271 -250.5t-394 -90h-475zM352 145h316q264 0 432 157t168 403q0 161 -76 288t-213 198t-311 71h-316v-1117z" />
    <glyph glyph-name="dcaron" unicode="&#x10f;" 
d="M983 860v572h154v-1432h-154v199q-61 -106 -160.5 -165t-224.5 -59q-210 0 -348.5 156t-138.5 399q0 242 138.5 397.5t348.5 155.5q126 0 225 -58.5t160 -164.5zM1384 1432q49 0 78 -39t29 -101q0 -50 -28 -103.5t-105 -152.5l-66 47q72 82 90 162q-38 0 -65 28t-27 66
q0 37 27.5 65t66.5 28zM627 113q157 0 256.5 117t99.5 300t-99.5 299.5t-256.5 116.5q-155 0 -255 -116.5t-100 -299.5t100 -300t255 -117z" />
    <glyph glyph-name="Dcroat" unicode="&#x110;" horiz-adv-x="1595" 
d="M702 1407q220 0 394 -89t271 -249.5t97 -363.5q0 -204 -97 -364.5t-271 -250.5t-394 -90h-475v641h-141v152h141v614h475zM702 145q264 0 432.5 157t168.5 403q0 161 -76.5 288t-213.5 198t-311 71h-315v-469h414l-2 -152h-412v-496h315z" />
    <glyph glyph-name="dcroat" unicode="&#x111;" horiz-adv-x="1345" 
d="M1270 1300v-102h-133v-1198h-154v199q-61 -106 -160.5 -165t-224.5 -59q-210 0 -348.5 156t-138.5 399q0 242 138.5 397.5t348.5 155.5q126 0 225 -58.5t160 -164.5v338h-348v102h348v132h154v-132h133zM627 113q157 0 256.5 117t99.5 300t-99.5 299.5t-256.5 116.5
q-155 0 -255 -116.5t-100 -299.5t100 -300t255 -117z" />
    <glyph glyph-name="Emacron" unicode="&#x112;" horiz-adv-x="1284" 
d="M985 1677v-112h-635v112h635zM1171 1255h-847v-462h763v-152h-763v-489h847v-152h-1009v1407h1009v-152z" />
    <glyph glyph-name="emacron" unicode="&#x113;" horiz-adv-x="1218" 
d="M938 1329v-112h-635v112h635zM633 113q93 0 188.5 36.5t145.5 90.5l94 -101q-67 -73 -189.5 -118.5t-236.5 -45.5q-105 0 -203 41.5t-172 114t-118 177.5t-44 224q0 154 71 281t191 198.5t261 71.5q237 0 369 -165t132 -447h-866q18 -158 120.5 -258t256.5 -100zM627 946
q-142 0 -244.5 -93t-124.5 -245h713q-16 150 -104 244t-240 94z" />
    <glyph glyph-name="Edotaccent" unicode="&#x116;" horiz-adv-x="1284" 
d="M668 1571q-40 0 -67.5 27.5t-27.5 66.5q0 37 28 65.5t67 28.5q38 0 66 -28.5t28 -65.5q0 -38 -28 -66t-66 -28zM1171 1255h-847v-462h763v-152h-763v-489h847v-152h-1009v1407h1009v-152z" />
    <glyph glyph-name="edotaccent" unicode="&#x117;" horiz-adv-x="1218" 
d="M621 1223q-39 0 -67 27.5t-28 66.5q0 37 28 65.5t67 28.5q38 0 66 -28.5t28 -65.5q0 -38 -28 -66t-66 -28zM633 113q93 0 188.5 36.5t145.5 90.5l94 -101q-67 -73 -189.5 -118.5t-236.5 -45.5q-105 0 -203 41.5t-172 114t-118 177.5t-44 224q0 154 71 281t191 198.5
t261 71.5q237 0 369 -165t132 -447h-866q18 -158 120.5 -258t256.5 -100zM627 946q-142 0 -244.5 -93t-124.5 -245h713q-16 150 -104 244t-240 94z" />
    <glyph glyph-name="Eogonek" unicode="&#x118;" horiz-adv-x="1284" 
d="M1171 1255h-847v-462h763v-152h-763v-489h847v-152h-161q-52 0 -85.5 -33t-33.5 -84q0 -54 31 -85t88 -31q63 0 96 38l65 -100q-71 -59 -172 -59q-100 0 -161.5 59t-61.5 160q0 75 53 135h-667v1407h1009v-152z" />
    <glyph glyph-name="eogonek" unicode="&#x119;" horiz-adv-x="1218" 
d="M817 2q-37 -32 -37 -86t31 -85.5t88 -31.5q62 0 96 39l66 -100q-72 -60 -172 -60t-161.5 59.5t-61.5 160.5q0 39 16 79q-16 -2 -47 -2q-105 0 -203 41.5t-172 114t-118 177.5t-44 224q0 154 71 281t191 198.5t261 71.5q237 0 369 -165t132 -447h-866q18 -158 120.5 -258
t256.5 -100q93 0 188.5 36.5t145.5 90.5l94 -101q-82 -88 -244 -137zM627 946q-142 0 -244.5 -93t-124.5 -245h713q-16 150 -104 244t-240 94z" />
    <glyph glyph-name="Ecaron" unicode="&#x11a;" horiz-adv-x="1284" 
d="M739 1528h-143l-205 280h117l160 -176l161 176h119zM1171 1255h-847v-462h763v-152h-763v-489h847v-152h-1009v1407h1009v-152z" />
    <glyph glyph-name="ecaron" unicode="&#x11b;" horiz-adv-x="1218" 
d="M692 1180h-143l-205 280h117l160 -176l161 176h119zM633 113q93 0 188.5 36.5t145.5 90.5l94 -101q-67 -73 -189.5 -118.5t-236.5 -45.5q-105 0 -203 41.5t-172 114t-118 177.5t-44 224q0 154 71 281t191 198.5t261 71.5q237 0 369 -165t132 -447h-866
q18 -158 120.5 -258t256.5 -100zM627 946q-142 0 -244.5 -93t-124.5 -245h713q-16 150 -104 244t-240 94z" />
    <glyph glyph-name="Gbreve" unicode="&#x11e;" horiz-adv-x="1525" 
d="M1126 1677q-123 -123 -299 -123q-173 0 -299 123l97 97q89 -86 202 -86q54 0 107.5 23t95.5 63zM811 590v151h563v-551q-97 -97 -248 -156t-299 -59q-191 0 -357.5 99.5t-265 268t-98.5 362.5q0 145 58.5 279.5t156 232.5t230.5 156.5t276 58.5q148 0 299 -58.5
t248 -156.5l-108 -111q-75 80 -198 129t-241 49q-149 0 -278 -79t-205 -212.5t-76 -287.5q0 -116 45 -223.5t120.5 -186t179 -125.5t214.5 -47q98 0 203.5 35.5t183.5 95.5v336h-403z" />
    <glyph glyph-name="gbreve" unicode="&#x11f;" horiz-adv-x="1302" 
d="M965 1329q-123 -123 -299 -123q-173 0 -299 123l96 96q42 -40 95.5 -63t107.5 -23q113 0 202 86zM979 1059h154v-946q0 -204 -146 -334.5t-375 -130.5q-126 0 -240 39t-188 102l68 121q62 -59 152 -92t188 -33q183 0 285 86.5t102 241.5v172q-62 -98 -161.5 -152.5
t-223.5 -54.5q-214 0 -351 141.5t-137 362.5t137 361t351 140q124 0 223.5 -54t161.5 -152v182zM623 215q157 0 256.5 103t99.5 264q0 160 -99.5 262t-256.5 102q-155 0 -255 -102t-100 -262q0 -161 100 -264t255 -103z" />
    <glyph glyph-name="Gcommaaccent" unicode="&#x122;" horiz-adv-x="1525" 
d="M811 590v151h563v-551q-97 -97 -248 -156t-299 -59q-191 0 -357.5 99.5t-265 268t-98.5 362.5q0 145 58.5 279.5t156 232.5t230.5 156.5t276 58.5q148 0 299 -58.5t248 -156.5l-108 -111q-75 80 -198 129t-241 49q-149 0 -278 -79t-205 -212.5t-76 -287.5
q0 -116 45 -223.5t120.5 -186t179 -125.5t214.5 -47q98 0 203.5 35.5t183.5 95.5v336h-403zM821 -168q49 0 78 -38.5t29 -100.5q0 -50 -28 -103.5t-105 -152.5l-66 47q72 82 90 162q-38 0 -65 28t-27 66q0 37 27.5 64.5t66.5 27.5z" />
    <glyph glyph-name="gcommaaccent" unicode="&#x123;" horiz-adv-x="1302" 
d="M639 1225q-49 0 -78 38.5t-29 100.5q0 50 28 103t106 153l65 -47q-72 -82 -90 -162q38 0 65 -28t27 -66q0 -37 -27.5 -64.5t-66.5 -27.5zM979 1059h154v-946q0 -204 -146 -334.5t-375 -130.5q-126 0 -240 39t-188 102l68 121q62 -59 152 -92t188 -33q183 0 285 86.5
t102 241.5v172q-62 -98 -161.5 -152.5t-223.5 -54.5q-214 0 -351 141.5t-137 362.5t137 361t351 140q124 0 223.5 -54t161.5 -152v182zM623 215q157 0 256.5 103t99.5 264q0 160 -99.5 262t-256.5 102q-155 0 -255 -102t-100 -262q0 -161 100 -264t255 -103z" />
    <glyph glyph-name="Imacron" unicode="&#x12a;" horiz-adv-x="483" 
d="M-76 1565v112h635v-112h-635zM162 0v1407h160v-1407h-160z" />
    <glyph glyph-name="imacron" unicode="&#x12b;" horiz-adv-x="460" 
d="M-86 1217v112h635v-112h-635zM154 0v1059h153v-1059h-153z" />
    <glyph glyph-name="Iogonek" unicode="&#x12e;" horiz-adv-x="483" 
d="M418 -195l65 -100q-71 -59 -172 -59q-100 0 -161.5 59t-61.5 160q0 46 20.5 86.5t53.5 66.5v1389h160v-1407q-52 0 -85.5 -33t-33.5 -84q0 -54 31 -85t88 -31q63 0 96 38z" />
    <glyph glyph-name="iogonek" unicode="&#x12f;" horiz-adv-x="460" 
d="M231 1223q-39 0 -66.5 27.5t-27.5 66.5q0 37 27.5 65.5t66.5 28.5q38 0 66.5 -28.5t28.5 -65.5q0 -38 -28.5 -66t-66.5 -28zM328 -195l65 -100q-71 -59 -172 -59q-100 0 -161.5 59t-61.5 160q0 58 31 106.5t77 67.5l48 -14v1034h153v-1059h-76q-52 0 -85 -33t-33 -84
q0 -55 30.5 -85.5t87.5 -30.5q64 0 97 38z" />
    <glyph glyph-name="Idotaccent" unicode="&#x130;" horiz-adv-x="483" 
d="M242 1571q-40 0 -67.5 27.5t-27.5 66.5q0 37 28 65.5t67 28.5q38 0 66 -28.5t28 -65.5q0 -38 -28 -66t-66 -28zM162 0v1407h160v-1407h-160z" />
    <glyph glyph-name="dotlessi" unicode="&#x131;" horiz-adv-x="460" 
d="M154 0v1059h153v-1059h-153z" />
    <glyph glyph-name="Kcommaaccent" unicode="&#x136;" horiz-adv-x="1351" 
d="M188 0v1407h160v-778l713 778h211l-592 -643l631 -764h-207l-535 655l-221 -233v-422h-160zM672 -563l-66 47q72 82 90 162q-38 0 -65 28t-27 66q0 37 27.5 64.5t66.5 27.5q49 0 78 -38.5t29 -100.5q0 -50 -28 -103.5t-105 -152.5z" />
    <glyph glyph-name="kcommaaccent" unicode="&#x137;" horiz-adv-x="1112" 
d="M1083 1059l-477 -486l451 -573h-193l-366 469l-191 -188v-281h-153v1432h153v-959l580 586h196zM565 -168q49 0 78 -38.5t29 -100.5q0 -50 -28 -103.5t-105 -152.5l-66 47q72 82 90 162q-38 0 -65 28t-27 66q0 37 27.5 64.5t66.5 27.5z" />
    <glyph glyph-name="Lacute" unicode="&#x139;" horiz-adv-x="1136" 
d="M569 1786l-290 -258h-119l248 295zM299 152h768v-152h-928v1407h160v-1255z" />
    <glyph glyph-name="lacute" unicode="&#x13a;" horiz-adv-x="464" 
d="M174 1552l248 295l162 -37l-291 -258h-119zM156 0v1432h153v-1432h-153z" />
    <glyph glyph-name="Lcaron" unicode="&#x13d;" horiz-adv-x="1136" 
d="M545 1245q-38 0 -65 28t-27 66q0 37 27.5 65t66.5 28q49 0 77.5 -39t28.5 -101q0 -50 -28 -103.5t-105 -152.5l-65 47q72 82 90 162zM299 152h768v-152h-928v1407h160v-1255z" />
    <glyph glyph-name="lcaron" unicode="&#x13e;" horiz-adv-x="464" 
d="M156 0v1432h153v-1432h-153zM530 1036l-65 47q72 82 90 162q-38 0 -65 28t-27 66q0 37 27.5 65t66.5 28q49 0 78 -39t29 -101q0 -50 -28 -103t-106 -153z" />
    <glyph glyph-name="Lslash" unicode="&#x141;" horiz-adv-x="1243" 
d="M406 152h768v-152h-928v567l-170 -88v154l170 88v686h160v-604l282 145v-153l-282 -146v-497z" />
    <glyph glyph-name="lslash" unicode="&#x142;" horiz-adv-x="628" 
d="M553 879v-154l-168 -86v-639h-154v559l-155 -80v154l155 80v719h154v-639z" />
    <glyph glyph-name="Nacute" unicode="&#x143;" horiz-adv-x="1576" 
d="M625 1528l247 295l162 -37l-291 -258h-118zM193 0v1407h159l873 -1145v1145h159v-1407h-159l-873 1145v-1145h-159z" />
    <glyph glyph-name="nacute" unicode="&#x144;" horiz-adv-x="1212" 
d="M887 1438l-291 -258h-119l248 295zM659 1083q175 0 286.5 -114.5t111.5 -294.5v-674h-154v653q0 129 -73.5 211t-190.5 82q-133 0 -230.5 -81t-97.5 -191v-674h-153v1059h153v-170q46 86 141.5 140t206.5 54z" />
    <glyph glyph-name="Ncommaaccent" unicode="&#x145;" horiz-adv-x="1576" 
d="M193 0v1407h159l873 -1145v1145h159v-1407h-159l-873 1145v-1145h-159zM762 -563l-66 47q72 82 90 162q-38 0 -65 28t-27 66q0 37 27.5 64.5t66.5 27.5q49 0 78 -38.5t29 -100.5q0 -50 -28 -103.5t-105 -152.5z" />
    <glyph glyph-name="ncommaaccent" unicode="&#x146;" horiz-adv-x="1212" 
d="M659 1083q175 0 286.5 -114.5t111.5 -294.5v-674h-154v653q0 129 -73.5 211t-190.5 82q-133 0 -230.5 -81t-97.5 -191v-674h-153v1059h153v-170q46 86 141.5 140t206.5 54zM641 -168q49 0 78 -38.5t29 -100.5q0 -50 -28 -103t-106 -153l-65 47q72 82 90 162q-38 0 -65 28
t-27 66q0 37 27.5 64.5t66.5 27.5z" />
    <glyph glyph-name="Ncaron" unicode="&#x147;" horiz-adv-x="1576" 
d="M717 1528l-205 280h117l159 -176l162 176h119l-209 -280h-143zM193 0v1407h159l873 -1145v1145h159v-1407h-159l-873 1145v-1145h-159z" />
    <glyph glyph-name="ncaron" unicode="&#x148;" horiz-adv-x="1212" 
d="M713 1180h-144l-204 280h116l160 -176l162 176h119zM659 1083q175 0 286.5 -114.5t111.5 -294.5v-674h-154v653q0 129 -73.5 211t-190.5 82q-133 0 -230.5 -81t-97.5 -191v-674h-153v1059h153v-170q46 86 141.5 140t206.5 54z" />
    <glyph glyph-name="Omacron" unicode="&#x14c;" horiz-adv-x="1652" 
d="M510 1565v112h635v-112h-635zM827 -25q-191 0 -357.5 99.5t-265 268t-98.5 362.5q0 145 58.5 279.5t156 232.5t230.5 156.5t276 58.5q144 0 277 -58.5t229.5 -156.5t154.5 -232.5t58 -279.5q0 -194 -97.5 -362.5t-263.5 -268t-358 -99.5zM827 123q111 0 214.5 47
t178 125.5t119.5 186t45 223.5q0 154 -75.5 287.5t-204 212.5t-277.5 79t-278 -79t-205 -212.5t-76 -287.5q0 -116 45 -223.5t120.5 -186t179 -125.5t214.5 -47z" />
    <glyph glyph-name="omacron" unicode="&#x14d;" horiz-adv-x="1292" 
d="M330 1217v112h635v-112h-635zM647 -25q-109 0 -210.5 45t-175.5 119.5t-118.5 177t-44.5 213.5q0 148 75 275.5t201.5 202.5t272.5 75q109 0 210.5 -44.5t175 -119t117.5 -176.5t44 -213t-44 -213.5t-117.5 -177.5t-175 -119.5t-210.5 -44.5zM647 113q157 0 271 123.5
t114 293.5q0 83 -31 160t-83 133t-123 89.5t-148 33.5q-158 0 -272.5 -123.5t-114.5 -292.5q0 -170 114.5 -293.5t272.5 -123.5z" />
    <glyph glyph-name="Ohungarumlaut" unicode="&#x150;" horiz-adv-x="1652" 
d="M541 1526l247 297l162 -37l-291 -260h-118zM950 1526l248 293l162 -37l-291 -256h-119zM827 -25q-191 0 -357.5 99.5t-265 268t-98.5 362.5q0 145 58.5 279.5t156 232.5t230.5 156.5t276 58.5q144 0 277 -58.5t229.5 -156.5t154.5 -232.5t58 -279.5q0 -194 -97.5 -362.5
t-263.5 -268t-358 -99.5zM827 123q111 0 214.5 47t178 125.5t119.5 186t45 223.5q0 154 -75.5 287.5t-204 212.5t-277.5 79t-278 -79t-205 -212.5t-76 -287.5q0 -116 45 -223.5t120.5 -186t179 -125.5t214.5 -47z" />
    <glyph glyph-name="ohungarumlaut" unicode="&#x151;" horiz-adv-x="1292" 
d="M371 1178l247 297l162 -37l-291 -260h-118zM780 1178l248 292l162 -36l-291 -256h-119zM647 -25q-109 0 -210.5 45t-175.5 119.5t-118.5 177t-44.5 213.5q0 148 75 275.5t201.5 202.5t272.5 75q109 0 210.5 -44.5t175 -119t117.5 -176.5t44 -213t-44 -213.5
t-117.5 -177.5t-175 -119.5t-210.5 -44.5zM647 113q157 0 271 123.5t114 293.5q0 83 -31 160t-83 133t-123 89.5t-148 33.5q-158 0 -272.5 -123.5t-114.5 -292.5q0 -170 114.5 -293.5t272.5 -123.5z" />
    <glyph glyph-name="OE" unicode="&#x152;" horiz-adv-x="2113" 
d="M2001 1255h-848v-462h764v-152h-764v-489h848v-152h-1174q-193 0 -358 87.5t-264 245.5t-99 351q0 145 58.5 279t156 231t230.5 155t276 58h1174v-152zM827 147h164v1113h-164q-112 0 -215 -46.5t-178.5 -124t-120.5 -184t-45 -221.5q0 -154 76.5 -278t204 -191.5
t278.5 -67.5z" />
    <glyph glyph-name="oe" unicode="&#x153;" horiz-adv-x="2154" 
d="M1569 113q93 0 188.5 36.5t145.5 90.5l94 -101q-67 -73 -189.5 -118.5t-236.5 -45.5q-141 0 -264 72t-195 195q-75 -121 -199 -194t-266 -73q-109 0 -210.5 45t-175.5 119.5t-118.5 177t-44.5 213.5q0 148 75 275.5t201.5 202.5t272.5 75q142 0 265 -71.5t198 -190.5
q70 121 188 191.5t258 70.5q237 0 369.5 -165t132.5 -447h-866q18 -158 120.5 -258t256.5 -100zM647 113q157 0 271 123.5t114 293.5q0 83 -31 160t-83 133t-123 89.5t-148 33.5q-158 0 -272.5 -123.5t-114.5 -292.5q0 -170 114.5 -293.5t272.5 -123.5zM1563 946
q-142 0 -244.5 -93t-124.5 -245h713q-16 150 -104 244t-240 94z" />
    <glyph glyph-name="Racute" unicode="&#x154;" horiz-adv-x="1331" 
d="M930 1786l-291 -258h-119l248 295zM1251 956q0 -163 -106.5 -281.5t-276.5 -154.5l365 -520h-182l-357 506h-372v-506h-160v1407h571q220 0 369 -127.5t149 -323.5zM322 1255v-598h383q174 0 279.5 80t105.5 219t-105.5 219t-279.5 80h-383z" />
    <glyph glyph-name="racute" unicode="&#x155;" horiz-adv-x="790" 
d="M709 1438l-291 -258h-119l248 295zM324 852q48 107 156 169t253 62v-137q-180 0 -294.5 -99.5t-114.5 -254.5v-592h-154v1059h154v-207z" />
    <glyph glyph-name="Rcommaaccent" unicode="&#x156;" horiz-adv-x="1331" 
d="M1251 956q0 -163 -106.5 -281.5t-276.5 -154.5l365 -520h-182l-357 506h-372v-506h-160v1407h571q220 0 369 -127.5t149 -323.5zM322 1255v-598h383q174 0 279.5 80t105.5 219t-105.5 219t-279.5 80h-383zM653 -168q49 0 78 -38.5t29 -100.5q0 -50 -28 -103.5
t-105 -152.5l-66 47q72 82 90 162q-38 0 -65 28t-27 66q0 37 27.5 64.5t66.5 27.5z" />
    <glyph glyph-name="rcommaaccent" unicode="&#x157;" horiz-adv-x="790" 
d="M324 852q48 107 156 169t253 62v-137q-180 0 -294.5 -99.5t-114.5 -254.5v-592h-154v1059h154v-207zM324 -168q49 0 77.5 -38.5t28.5 -100.5q0 -50 -28 -103.5t-105 -152.5l-66 47q74 83 91 162q-38 0 -65.5 28t-27.5 66q0 37 28 64.5t67 27.5z" />
    <glyph glyph-name="Rcaron" unicode="&#x158;" horiz-adv-x="1331" 
d="M756 1528h-144l-204 280h116l160 -176l162 176h119zM1251 956q0 -163 -106.5 -281.5t-276.5 -154.5l365 -520h-182l-357 506h-372v-506h-160v1407h571q220 0 369 -127.5t149 -323.5zM322 1255v-598h383q174 0 279.5 80t105.5 219t-105.5 219t-279.5 80h-383z" />
    <glyph glyph-name="rcaron" unicode="&#x159;" horiz-adv-x="790" 
d="M535 1180h-144l-205 280h117l160 -176l162 176h118zM324 852q48 107 156 169t253 62v-137q-180 0 -294.5 -99.5t-114.5 -254.5v-592h-154v1059h154v-207z" />
    <glyph glyph-name="Sacute" unicode="&#x15a;" horiz-adv-x="1255" 
d="M451 1528l247 295l162 -37l-291 -258h-118zM649 -23q-328 0 -555 224l101 125q203 -203 460 -203q155 0 241.5 72t86.5 174q0 106 -89.5 163t-289.5 103q-91 21 -157.5 43t-126.5 54.5t-97 73t-58.5 97.5t-21.5 129q0 170 135 286t336 116q276 0 494 -201l-98 -125
q-186 180 -404 180q-128 0 -214.5 -72.5t-86.5 -171.5q0 -43 17.5 -77t46 -58.5t79.5 -46t103.5 -37t132.5 -34.5q109 -26 186.5 -56.5t143 -77.5t98.5 -115.5t33 -158.5q0 -176 -130 -291t-366 -115z" />
    <glyph glyph-name="sacute" unicode="&#x15b;" horiz-adv-x="1015" 
d="M350 1180l248 295l162 -37l-291 -258h-119zM530 -25q-112 0 -228 41.5t-210 116.5l80 113q183 -133 358 -133q105 0 169.5 45.5t64.5 120.5q0 24 -8 45t-19 36t-33.5 30t-40 24.5t-51 21t-54 18t-60.5 17.5q-195 56 -275 122.5t-80 178.5q0 142 104.5 226.5t266.5 84.5
q199 0 379 -118l-74 -119q-156 100 -305 100q-94 0 -155.5 -40.5t-61.5 -114.5q0 -65 56 -99t218 -86q47 -15 73.5 -23.5t69 -26t66.5 -32.5t54 -39t46 -50t27 -62t11 -78q0 -144 -110.5 -232t-277.5 -88z" />
    <glyph glyph-name="Scedilla" unicode="&#x15e;" horiz-adv-x="1255" 
d="M1145 383q0 -169 -120 -282.5t-339 -123.5l-31 -71q8 2 23 2q62 0 101.5 -37.5t39.5 -97.5q0 -74 -57.5 -120t-143.5 -46q-109 0 -180 57l39 86q58 -47 133 -47q44 0 73.5 22t29.5 56q0 31 -20 50t-60 19q-42 0 -70 -22l-33 35l50 117q-285 23 -486 221l101 125
q203 -203 460 -203q155 0 241.5 72t86.5 174q0 106 -89.5 163t-289.5 103q-91 21 -157.5 43t-126.5 54.5t-97 73t-58.5 97.5t-21.5 129q0 170 135 286t336 116q276 0 494 -201l-98 -125q-186 180 -404 180q-128 0 -214.5 -72.5t-86.5 -171.5q0 -43 17.5 -77t46 -58.5
t79.5 -46t103.5 -37t132.5 -34.5q109 -26 186.5 -56.5t143 -77.5t98.5 -115.5t33 -158.5z" />
    <glyph glyph-name="scedilla" unicode="&#x15f;" horiz-adv-x="1015" 
d="M918 295q0 -136 -100 -223.5t-255 -96.5l-28 -69q8 2 22 2q62 0 101.5 -37.5t39.5 -97.5q0 -74 -57 -120t-143 -46q-110 0 -181 57l39 86q58 -47 133 -47q44 0 73.5 22t29.5 56q0 31 -20 50t-60 19q-42 0 -70 -22l-32 35l49 117q-206 23 -367 153l80 113
q183 -133 358 -133q105 0 169.5 45.5t64.5 120.5q0 24 -8 45t-19 36t-33.5 30t-40 24.5t-51 21t-54 18t-60.5 17.5q-195 56 -275 122.5t-80 178.5q0 142 104.5 226.5t266.5 84.5q199 0 379 -118l-74 -119q-156 100 -305 100q-94 0 -155.5 -40.5t-61.5 -114.5q0 -65 56 -99
t218 -86q47 -15 73.5 -23.5t69 -26t66.5 -32.5t54 -39t46 -50t27 -62t11 -78z" />
    <glyph glyph-name="Scaron" unicode="&#x160;" horiz-adv-x="1255" 
d="M543 1528l-205 280h117l159 -176l162 176h119l-209 -280h-143zM649 -23q-328 0 -555 224l101 125q203 -203 460 -203q155 0 241.5 72t86.5 174q0 106 -89.5 163t-289.5 103q-91 21 -157.5 43t-126.5 54.5t-97 73t-58.5 97.5t-21.5 129q0 170 135 286t336 116
q276 0 494 -201l-98 -125q-186 180 -404 180q-128 0 -214.5 -72.5t-86.5 -171.5q0 -43 17.5 -77t46 -58.5t79.5 -46t103.5 -37t132.5 -34.5q109 -26 186.5 -56.5t143 -77.5t98.5 -115.5t33 -158.5q0 -176 -130 -291t-366 -115z" />
    <glyph glyph-name="scaron" unicode="&#x161;" horiz-adv-x="1015" 
d="M442 1180l-204 280h116l160 -176l162 176h119l-209 -280h-144zM530 -25q-112 0 -228 41.5t-210 116.5l80 113q183 -133 358 -133q105 0 169.5 45.5t64.5 120.5q0 24 -8 45t-19 36t-33.5 30t-40 24.5t-51 21t-54 18t-60.5 17.5q-195 56 -275 122.5t-80 178.5
q0 142 104.5 226.5t266.5 84.5q199 0 379 -118l-74 -119q-156 100 -305 100q-94 0 -155.5 -40.5t-61.5 -114.5q0 -65 56 -99t218 -86q47 -15 73.5 -23.5t69 -26t66.5 -32.5t54 -39t46 -50t27 -62t11 -78q0 -144 -110.5 -232t-277.5 -88z" />
    <glyph glyph-name="uni0162" unicode="&#x162;" horiz-adv-x="1290" 
d="M725 0h-27l-39 -94q8 2 23 2q62 0 101.5 -37.5t39.5 -97.5q0 -74 -57 -120t-143 -46q-110 0 -181 57l39 86q58 -47 133 -47q44 0 73.5 22t29.5 56q0 31 -20 50t-60 19q-42 0 -70 -22l-32 35l57 137h-27v1255h-473v152h1106v-152h-473v-1255z" />
    <glyph glyph-name="uni0163" unicode="&#x163;" horiz-adv-x="757" 
d="M553 -92q62 0 101.5 -37.5t39.5 -97.5q0 -74 -57 -120t-143 -46q-110 0 -181 57l39 86q58 -47 133 -47q44 0 73.5 22t29.5 56q0 31 -20 50t-60 19q-42 0 -70 -22l-32 35l49 117q-95 14 -154 87t-59 179v676h-166v137h166v291h153v-291h260v-137h-260v-676q0 -57 34 -95
t81 -38q71 0 111 43l75 -113q-56 -45 -133 -61l-33 -76q8 2 23 2z" />
    <glyph glyph-name="Tcaron" unicode="&#x164;" horiz-adv-x="1290" 
d="M573 1528l-204 280h116l160 -176l162 176h119l-209 -280h-144zM565 0v1255h-473v152h1106v-152h-473v-1255h-160z" />
    <glyph glyph-name="tcaron" unicode="&#x165;" horiz-adv-x="757" 
d="M905 1432q49 0 78 -39t29 -101q0 -50 -28 -103.5t-105 -152.5l-66 47q72 82 90 162q-38 0 -65 28t-27 66q0 37 27.5 65t66.5 28zM510 113q71 0 111 43l75 -113q-87 -68 -196 -68q-114 0 -186 76t-72 195v676h-166v137h166v291h153v-291h260v-137h-260v-676q0 -57 34 -95
t81 -38z" />
    <glyph glyph-name="Umacron" unicode="&#x16a;" horiz-adv-x="1527" 
d="M446 1565v112h635v-112h-635zM764 -25q-258 0 -423 171t-165 438v823h160v-823q0 -203 120.5 -333t307.5 -130t307.5 130t120.5 333v823h160v-823q0 -267 -165 -438t-423 -171z" />
    <glyph glyph-name="umacron" unicode="&#x16b;" horiz-adv-x="1212" 
d="M922 1329v-112h-635v112h635zM901 1059h154v-1059h-154v170q-46 -86 -141.5 -140.5t-206.5 -54.5q-175 0 -286 115t-111 295v674h153v-653q0 -129 73.5 -211t190.5 -82q133 0 230.5 81t97.5 191v674z" />
    <glyph glyph-name="Uring" unicode="&#x16e;" horiz-adv-x="1527" 
d="M764 1554q-88 0 -149.5 61.5t-61.5 149.5t61.5 149.5t149.5 61.5t149.5 -61.5t61.5 -149.5t-61.5 -149.5t-149.5 -61.5zM764 1645q50 0 85.5 35.5t35.5 84.5t-35.5 85t-85.5 36t-85.5 -36t-35.5 -85t35.5 -84.5t85.5 -35.5zM764 -25q-258 0 -423 171t-165 438v823h160
v-823q0 -203 120.5 -333t307.5 -130t307.5 130t120.5 333v823h160v-823q0 -267 -165 -438t-423 -171z" />
    <glyph glyph-name="uring" unicode="&#x16f;" horiz-adv-x="1212" 
d="M604 1206q-88 0 -149.5 61.5t-61.5 149.5t61.5 149.5t149.5 61.5t149.5 -61.5t61.5 -149.5t-61.5 -149.5t-149.5 -61.5zM604 1538q-50 0 -85.5 -36t-35.5 -85t35.5 -85t85.5 -36t85.5 36t35.5 85t-35.5 85t-85.5 36zM901 1059h154v-1059h-154v170q-46 -86 -141.5 -140.5
t-206.5 -54.5q-175 0 -286 115t-111 295v674h153v-653q0 -129 73.5 -211t190.5 -82q133 0 230.5 81t97.5 191v674z" />
    <glyph glyph-name="Uhungarumlaut" unicode="&#x170;" horiz-adv-x="1527" 
d="M477 1526l248 297l162 -37l-291 -260h-119zM887 1526l248 293l161 -37l-290 -256h-119zM764 -25q-258 0 -423 171t-165 438v823h160v-823q0 -203 120.5 -333t307.5 -130t307.5 130t120.5 333v823h160v-823q0 -267 -165 -438t-423 -171z" />
    <glyph glyph-name="uhungarumlaut" unicode="&#x171;" horiz-adv-x="1212" 
d="M727 1438l-291 -260h-119l248 297zM846 1178h-119l248 292l162 -36zM901 385v674h154v-1059h-154v170q-46 -86 -141.5 -140.5t-206.5 -54.5q-175 0 -286 115t-111 295v674h153v-653q0 -129 73.5 -211t190.5 -82q133 0 230.5 81t97.5 191z" />
    <glyph glyph-name="Uogonek" unicode="&#x172;" horiz-adv-x="1527" 
d="M1192 1407h160v-823q0 -267 -165 -438t-423 -171h-31q-43 -32 -43 -92q0 -54 31 -85t88 -31q63 0 96 38l66 -100q-71 -59 -172 -59q-100 0 -162 59t-62 160q0 67 46 127q-201 45 -323 205t-122 387v823h160v-823q0 -203 120.5 -333t307.5 -130t307.5 130t120.5 333v823z
" />
    <glyph glyph-name="uogonek" unicode="&#x173;" horiz-adv-x="1212" 
d="M1151 -195l66 -100q-71 -59 -173 -59q-100 0 -161.5 59t-61.5 160q0 48 22.5 91t57.5 67v147q-46 -86 -141.5 -140.5t-206.5 -54.5q-175 0 -286 115t-111 295v674h153v-653q0 -129 73.5 -211t190.5 -82q133 0 230.5 81t97.5 191v674h154v-1059q-52 0 -85.5 -33t-33.5 -84
q0 -54 31 -85t88 -31q63 0 96 38z" />
    <glyph glyph-name="Wcircumflex" unicode="&#x174;" horiz-adv-x="2213" 
d="M831 1528l205 280h144l209 -280h-119l-162 176l-160 -176h-117zM557 0l-481 1407h180l389 -1139l373 1139h178l373 -1139l389 1139h180l-481 -1407h-158l-391 1198l-393 -1198h-158z" />
    <glyph glyph-name="wcircumflex" unicode="&#x175;" horiz-adv-x="1705" 
d="M580 1180l204 280h144l209 -280h-119l-162 176l-160 -176h-116zM426 0l-354 1059h164l264 -854l288 854h134l288 -854l265 854h163l-356 -1059h-145l-281 846l-285 -846h-145z" />
    <glyph glyph-name="Ycircumflex" unicode="&#x176;" horiz-adv-x="1374" 
d="M412 1528l204 280h144l209 -280h-119l-162 176l-160 -176h-116zM604 0v573l-567 834h199l452 -682l457 682h192l-565 -834v-573h-168z" />
    <glyph glyph-name="ycircumflex" unicode="&#x177;" horiz-adv-x="1214" 
d="M326 1180l204 280h144l209 -280h-119l-162 176l-160 -176h-116zM313 -369q-93 0 -168 35l37 131q53 -26 125 -26q53 0 88.5 21t65.5 73l61 131l-461 1063h170l371 -881l350 881h166l-483 -1178q-54 -132 -132 -190t-190 -60z" />
    <glyph glyph-name="Ydieresis" unicode="&#x178;" horiz-adv-x="1374" 
d="M492 1571q-40 0 -67.5 27.5t-27.5 66.5q0 37 28 65.5t67 28.5q38 0 66 -28.5t28 -65.5q0 -38 -28 -66t-66 -28zM885 1571q-39 0 -66.5 27.5t-27.5 66.5q0 37 27.5 65.5t66.5 28.5q38 0 66 -28.5t28 -65.5q0 -38 -28 -66t-66 -28zM604 0v573l-567 834h199l452 -682
l457 682h192l-565 -834v-573h-168z" />
    <glyph glyph-name="Zacute" unicode="&#x179;" horiz-adv-x="1308" 
d="M496 1528l247 295l162 -37l-291 -258h-118zM119 0v127l848 1128h-834v152h1053v-127l-850 -1128h858v-152h-1075z" />
    <glyph glyph-name="zacute" unicode="&#x17a;" horiz-adv-x="1052" 
d="M377 1180l248 295l161 -37l-290 -258h-119zM111 0v121l624 792h-612v146h819v-121l-627 -793h631v-145h-835z" />
    <glyph glyph-name="Zdotaccent" unicode="&#x17b;" horiz-adv-x="1308" 
d="M659 1571q-39 0 -66.5 27.5t-27.5 66.5q0 37 27.5 65.5t66.5 28.5q38 0 66.5 -28.5t28.5 -65.5q0 -38 -28.5 -66t-66.5 -28zM119 0v127l848 1128h-834v152h1053v-127l-850 -1128h858v-152h-1075z" />
    <glyph glyph-name="zdotaccent" unicode="&#x17c;" horiz-adv-x="1052" 
d="M541 1223q-39 0 -67 27.5t-28 66.5q0 37 28 65.5t67 28.5q38 0 66 -28.5t28 -65.5q0 -38 -28 -66t-66 -28zM111 0v121l624 792h-612v146h819v-121l-627 -793h631v-145h-835z" />
    <glyph glyph-name="Zcaron" unicode="&#x17d;" horiz-adv-x="1308" 
d="M588 1528l-205 280h117l159 -176l162 176h119l-209 -280h-143zM119 0v127l848 1128h-834v152h1053v-127l-850 -1128h858v-152h-1075z" />
    <glyph glyph-name="zcaron" unicode="&#x17e;" horiz-adv-x="1052" 
d="M469 1180l-205 280h117l160 -176l161 176h119l-209 -280h-143zM111 0v121l624 792h-612v146h819v-121l-627 -793h631v-145h-835z" />
    <glyph glyph-name="uni0237" unicode="&#x237;" horiz-adv-x="460" 
d="M49 -365q-91 0 -166 33l25 127q61 -22 131 -22q51 0 83 37t32 96v1153h153v-1153q0 -119 -72 -195t-186 -76z" />
    <glyph glyph-name="circumflex" unicode="&#x2c6;" horiz-adv-x="815" 
d="M129 1180l205 280h143l209 -280h-119l-161 176l-160 -176h-117z" />
    <glyph glyph-name="caron" unicode="&#x2c7;" horiz-adv-x="815" 
d="M334 1180l-205 280h117l160 -176l161 176h119l-209 -280h-143z" />
    <glyph glyph-name="breve" unicode="&#x2d8;" horiz-adv-x="856" 
d="M428 1206q-173 0 -299 123l96 96q42 -40 95.5 -63t107.5 -23t107.5 23t95.5 63l96 -96q-123 -123 -299 -123z" />
    <glyph glyph-name="dotaccent" unicode="&#x2d9;" horiz-adv-x="446" 
d="M223 1223q-39 0 -66.5 27.5t-27.5 66.5q0 37 27.5 65.5t66.5 28.5q38 0 66 -28.5t28 -65.5q0 -38 -28 -66t-66 -28z" />
    <glyph glyph-name="ring" unicode="&#x2da;" horiz-adv-x="679" 
d="M340 1206q-88 0 -149.5 61.5t-61.5 149.5t61.5 149.5t149.5 61.5t149.5 -61.5t61.5 -149.5t-61.5 -149.5t-149.5 -61.5zM340 1296q50 0 85.5 36t35.5 85t-35.5 85t-85.5 36t-85.5 -36t-35.5 -85t35.5 -85t85.5 -36z" />
    <glyph glyph-name="ogonek" unicode="&#x2db;" horiz-adv-x="653" 
d="M352 -354q-100 0 -161.5 59t-61.5 160q0 58 31.5 106.5t77.5 67.5l124 -39q-52 0 -85 -33t-33 -84q0 -55 31 -85.5t87 -30.5q64 0 97 38l65 -100q-71 -59 -172 -59z" />
    <glyph glyph-name="tilde" unicode="&#x2dc;" horiz-adv-x="923" 
d="M594 1178q-41 0 -80.5 21t-65.5 46.5t-58 46.5t-60 21q-80 0 -103 -139l-94 14q31 244 197 244q41 0 80.5 -21t65.5 -47t58 -47t60 -21q79 0 102 140l95 -15q-31 -243 -197 -243z" />
    <glyph glyph-name="hungarumlaut" unicode="&#x2dd;" horiz-adv-x="1079" 
d="M129 1178l248 297l162 -37l-291 -260h-119zM539 1178l247 292l162 -36l-291 -256h-118z" />
    <glyph glyph-name="uni0326" unicode="&#x326;" horiz-adv-x="0" 
d="M-291 -563l-65 47q72 82 90 162q-38 0 -65 28t-27 66q0 37 27.5 64.5t66.5 27.5q49 0 77.5 -38.5t28.5 -100.5q0 -50 -28 -103.5t-105 -152.5z" />
    <glyph glyph-name="Wgrave" unicode="&#x1e80;" horiz-adv-x="2213" 
d="M1051 1528l-291 258l162 37l247 -295h-118zM557 0l-481 1407h180l389 -1139l373 1139h178l373 -1139l389 1139h180l-481 -1407h-158l-391 1198l-393 -1198h-158z" />
    <glyph glyph-name="wgrave" unicode="&#x1e81;" horiz-adv-x="1705" 
d="M797 1180l-291 258l162 37l247 -295h-118zM426 0l-354 1059h164l264 -854l288 854h134l288 -854l265 854h163l-356 -1059h-145l-281 846l-285 -846h-145z" />
    <glyph glyph-name="Wacute" unicode="&#x1e82;" horiz-adv-x="2213" 
d="M1047 1528l247 295l162 -37l-291 -258h-118zM557 0l-481 1407h180l389 -1139l373 1139h178l373 -1139l389 1139h180l-481 -1407h-158l-391 1198l-393 -1198h-158z" />
    <glyph glyph-name="wacute" unicode="&#x1e83;" horiz-adv-x="1705" 
d="M795 1180l247 295l162 -37l-291 -258h-118zM426 0l-354 1059h164l264 -854l288 854h134l288 -854l265 854h163l-356 -1059h-145l-281 846l-285 -846h-145z" />
    <glyph glyph-name="Wdieresis" unicode="&#x1e84;" horiz-adv-x="2213" 
d="M911 1571q-39 0 -66.5 27.5t-27.5 66.5q0 37 27.5 65.5t66.5 28.5q38 0 66.5 -28.5t28.5 -65.5q0 -38 -28.5 -66t-66.5 -28zM1305 1571q-39 0 -67 27.5t-28 66.5q0 37 28 65.5t67 28.5q38 0 66 -28.5t28 -65.5q0 -38 -28 -66t-66 -28zM557 0l-481 1407h180l389 -1139
l373 1139h178l373 -1139l389 1139h180l-481 -1407h-158l-391 1198l-393 -1198h-158z" />
    <glyph glyph-name="wdieresis" unicode="&#x1e85;" horiz-adv-x="1705" 
d="M659 1223q-39 0 -66.5 27.5t-27.5 66.5q0 37 27.5 65.5t66.5 28.5q38 0 66.5 -28.5t28.5 -65.5q0 -38 -28.5 -66t-66.5 -28zM1053 1223q-39 0 -67 27.5t-28 66.5q0 37 28 65.5t67 28.5q38 0 66 -28.5t28 -65.5q0 -38 -28 -66t-66 -28zM426 0l-354 1059h164l264 -854
l288 854h134l288 -854l265 854h163l-356 -1059h-145l-281 846l-285 -846h-145z" />
    <glyph glyph-name="uni1EB8" unicode="&#x1eb8;" horiz-adv-x="1284" 
d="M1171 1255h-847v-462h763v-152h-763v-489h847v-152h-1009v1407h1009v-152zM668 -164q38 0 66 -28.5t28 -65.5q0 -38 -28 -66t-66 -28q-40 0 -67.5 28t-27.5 66q0 37 28 65.5t67 28.5z" />
    <glyph glyph-name="uni1EB9" unicode="&#x1eb9;" horiz-adv-x="1218" 
d="M633 113q93 0 188.5 36.5t145.5 90.5l94 -101q-67 -73 -189.5 -118.5t-236.5 -45.5q-105 0 -203 41.5t-172 114t-118 177.5t-44 224q0 154 71 281t191 198.5t261 71.5q237 0 369 -165t132 -447h-866q18 -158 120.5 -258t256.5 -100zM627 946q-142 0 -244.5 -93
t-124.5 -245h713q-16 150 -104 244t-240 94zM621 -166q38 0 66 -28.5t28 -65.5q0 -38 -28 -66t-66 -28q-39 0 -67 28t-28 66q0 37 28 65.5t67 28.5z" />
    <glyph glyph-name="uni1EBC" unicode="&#x1ebc;" horiz-adv-x="1284" 
d="M535 1661q-80 0 -103 -139l-94 14q31 244 197 244q41 0 80.5 -21t65.5 -46.5t58 -46.5t60 -21q40 0 65 33t37 106l94 -15q-31 -243 -196 -243q-41 0 -80.5 21t-65.5 46.5t-58 46.5t-60 21zM1171 1255h-847v-462h763v-152h-763v-489h847v-152h-1009v1407h1009v-152z" />
    <glyph glyph-name="uni1EBD" unicode="&#x1ebd;" horiz-adv-x="1218" 
d="M487 1313q-40 0 -65 -33t-37 -106l-94 14q31 244 196 244q41 0 80.5 -21t66 -47t58.5 -47t60 -21q79 0 102 140l94 -15q-31 -243 -196 -243q-41 0 -80.5 21t-66 46.5t-58.5 46.5t-60 21zM633 113q93 0 188.5 36.5t145.5 90.5l94 -101q-67 -73 -189.5 -118.5t-236.5 -45.5
q-105 0 -203 41.5t-172 114t-118 177.5t-44 224q0 154 71 281t191 198.5t261 71.5q237 0 369 -165t132 -447h-866q18 -158 120.5 -258t256.5 -100zM627 946q-142 0 -244.5 -93t-124.5 -245h713q-16 150 -104 244t-240 94z" />
    <glyph glyph-name="Ygrave" unicode="&#x1ef2;" horiz-adv-x="1374" 
d="M713 1528l-291 258l162 37l247 -295h-118zM604 0v573l-567 834h199l452 -682l457 682h192l-565 -834v-573h-168z" />
    <glyph glyph-name="ygrave" unicode="&#x1ef3;" horiz-adv-x="1214" 
d="M627 1180l-291 258l162 37l247 -295h-118zM313 -369q-93 0 -168 35l37 131q53 -26 125 -26q53 0 88.5 21t65.5 73l61 131l-461 1063h170l371 -881l350 881h166l-483 -1178q-54 -132 -132 -190t-190 -60z" />
    <glyph glyph-name="endash" unicode="&#x2013;" horiz-adv-x="1181" 
d="M115 483v146h952v-146h-952z" />
    <glyph glyph-name="emdash" unicode="&#x2014;" horiz-adv-x="1806" 
d="M115 483v146h1577v-146h-1577z" />
    <glyph glyph-name="quoteleft" unicode="&#x2018;" horiz-adv-x="540" 
d="M303 1378l76 -57q-82 -94 -107 -191q46 0 78.5 -33t32.5 -79q0 -44 -32.5 -76.5t-80.5 -32.5q-57 0 -91 46t-34 118q0 62 33 126t125 179z" />
    <glyph glyph-name="quoteright" unicode="&#x2019;" horiz-adv-x="540" 
d="M238 913l-76 58q81 93 106 190q-45 0 -77.5 33.5t-32.5 79.5q0 44 32 76t80 32q57 0 91 -45.5t34 -117.5q0 -62 -33 -127t-124 -179z" />
    <glyph glyph-name="quotedblleft" unicode="&#x201c;" horiz-adv-x="950" 
d="M303 1378l76 -57q-82 -94 -107 -191q46 0 78.5 -33t32.5 -79q0 -44 -32.5 -76.5t-80.5 -32.5q-57 0 -91 46t-34 118q0 62 33 126t125 179zM713 1378l75 -57q-81 -93 -106 -191q46 0 78.5 -33t32.5 -79q0 -44 -32.5 -76.5t-80.5 -32.5q-57 0 -91 46t-34 118q0 62 33 126
t125 179z" />
    <glyph glyph-name="quotedblright" unicode="&#x201d;" horiz-adv-x="950" 
d="M238 913l-76 58q81 93 106 190q-45 0 -77.5 33.5t-32.5 79.5q0 44 32 76t80 32q57 0 91 -45.5t34 -117.5q0 -62 -33 -127t-124 -179zM647 913l-76 58q83 95 107 190q-46 0 -78.5 33.5t-32.5 79.5q0 44 32.5 76t80.5 32q57 0 91 -45.5t34 -117.5q0 -62 -33 -126.5
t-125 -179.5z" />
    <glyph glyph-name="ellipsis" unicode="&#x2026;" horiz-adv-x="1339" 
d="M262 -25q-47 0 -79.5 33.5t-32.5 79.5q0 44 33 76.5t79 32.5q44 0 76.5 -33t32.5 -76q0 -46 -32.5 -79.5t-76.5 -33.5zM672 -25q-47 0 -80 33.5t-33 79.5q0 43 33 76t80 33q44 0 76 -33t32 -76q0 -46 -32 -79.5t-76 -33.5zM1081 -25q-47 0 -79.5 33.5t-32.5 79.5
q0 44 32.5 76.5t79.5 32.5q44 0 76.5 -33t32.5 -76q0 -46 -32.5 -79.5t-76.5 -33.5z" />
    <glyph glyph-name="perthousand" unicode="&#x2030;" horiz-adv-x="2394" 
d="M422 715q-143 0 -234.5 101t-91.5 247q0 153 93 254.5t235 101.5q144 0 235 -101.5t91 -250.5q0 -151 -92.5 -251.5t-235.5 -100.5zM268 0l963 1407h135l-963 -1407h-135zM424 825q86 0 141.5 68.5t55.5 171.5q0 105 -56.5 174.5t-142.5 69.5t-141.5 -69t-55.5 -175
q0 -101 57 -170.5t142 -69.5zM1204 -20q-141 0 -233 100.5t-92 251.5q0 148 91.5 250t235.5 102q143 0 234.5 -102t91.5 -248q0 -151 -93 -252.5t-235 -101.5zM1968 -20q-141 0 -233.5 100.5t-92.5 251.5q0 148 92 250t236 102q143 0 234.5 -102t91.5 -248
q0 -151 -93 -252.5t-235 -101.5zM1206 90q87 0 142 68.5t55 173.5q0 103 -56.5 172t-142.5 69t-141 -69t-55 -170q0 -105 55.5 -174.5t142.5 -69.5zM1970 90q87 0 142 68.5t55 173.5q0 103 -56.5 172t-142.5 69t-141 -69t-55 -170q0 -105 55.5 -174.5t142.5 -69.5z" />
    <glyph glyph-name="Euro" unicode="&#x20ac;" horiz-adv-x="1392" 
d="M827 123q113 0 216.5 47t181.5 131l108 -111q-101 -101 -232 -158t-274 -57q-232 0 -422.5 143.5t-263.5 364.5h-190v138h160q-5 67 -5 84q0 49 11 120h-166v138h205q81 207 264.5 338t406.5 131q144 0 275 -56.5t231 -158.5l-108 -111q-78 84 -181.5 131t-216.5 47
q-158 0 -292.5 -88.5t-204.5 -232.5h637v-138h-686q-13 -63 -13 -120q0 -43 6 -84h693v-138h-656q65 -159 206.5 -259.5t309.5 -100.5z" />
    <glyph glyph-name="minus" unicode="&#x2212;" horiz-adv-x="1214" 
d="M137 608v152h940v-152h-940z" />
    <glyph glyph-name="a.alt" 
d="M983 1059h154v-1059h-154v199q-61 -106 -160.5 -165t-224.5 -59q-210 0 -348.5 156t-138.5 399q0 242 138.5 397.5t348.5 155.5q126 0 225 -58.5t160 -164.5v199zM627 113q157 0 256.5 117t99.5 300t-99.5 299.5t-256.5 116.5q-155 0 -255 -116.5t-100 -299.5t100 -300
t255 -117z" />
    <glyph glyph-name="aacute.alt" 
d="M911 1438l-290 -258h-119l248 295zM983 1059h154v-1059h-154v199q-61 -106 -160.5 -165t-224.5 -59q-210 0 -348.5 156t-138.5 399q0 242 138.5 397.5t348.5 155.5q126 0 225 -58.5t160 -164.5v199zM627 113q157 0 256.5 117t99.5 300t-99.5 299.5t-256.5 116.5
q-155 0 -255 -116.5t-100 -299.5t100 -300t255 -117z" />
    <glyph glyph-name="abreve.alt" 
d="M965 1329q-123 -123 -299 -123q-173 0 -299 123l96 96q42 -40 95.5 -63t107.5 -23q113 0 202 86zM983 1059h154v-1059h-154v199q-61 -106 -160.5 -165t-224.5 -59q-210 0 -348.5 156t-138.5 399q0 242 138.5 397.5t348.5 155.5q126 0 225 -58.5t160 -164.5v199zM627 113
q157 0 256.5 117t99.5 300t-99.5 299.5t-256.5 116.5q-155 0 -255 -116.5t-100 -299.5t100 -300t255 -117z" />
    <glyph glyph-name="acircumflex.alt" 
d="M666 1356l-160 -176h-117l205 280h143l209 -280h-119zM983 1059h154v-1059h-154v199q-61 -106 -160.5 -165t-224.5 -59q-210 0 -348.5 156t-138.5 399q0 242 138.5 397.5t348.5 155.5q126 0 225 -58.5t160 -164.5v199zM627 113q157 0 256.5 117t99.5 300t-99.5 299.5
t-256.5 116.5q-155 0 -255 -116.5t-100 -299.5t100 -300t255 -117z" />
    <glyph glyph-name="adieresis.alt" 
d="M469 1223q-39 0 -66.5 27.5t-27.5 66.5q0 37 27.5 65.5t66.5 28.5q38 0 66 -28.5t28 -65.5q0 -38 -28 -66t-66 -28zM862 1223q-39 0 -66.5 27.5t-27.5 66.5q0 37 27.5 65.5t66.5 28.5q38 0 66 -28.5t28 -65.5q0 -38 -28 -66t-66 -28zM983 1059h154v-1059h-154v199
q-61 -106 -160.5 -165t-224.5 -59q-210 0 -348.5 156t-138.5 399q0 242 138.5 397.5t348.5 155.5q126 0 225 -58.5t160 -164.5v199zM627 113q157 0 256.5 117t99.5 300t-99.5 299.5t-256.5 116.5q-155 0 -255 -116.5t-100 -299.5t100 -300t255 -117z" />
    <glyph glyph-name="agrave.alt" 
d="M809 1180h-119l-291 258l162 37zM983 1059h154v-1059h-154v199q-61 -106 -160.5 -165t-224.5 -59q-210 0 -348.5 156t-138.5 399q0 242 138.5 397.5t348.5 155.5q126 0 225 -58.5t160 -164.5v199zM627 113q157 0 256.5 117t99.5 300t-99.5 299.5t-256.5 116.5
q-155 0 -255 -116.5t-100 -299.5t100 -300t255 -117z" />
    <glyph glyph-name="amacron.alt" 
d="M983 1329v-112h-635v112h635zM983 1059h154v-1059h-154v199q-61 -106 -160.5 -165t-224.5 -59q-210 0 -348.5 156t-138.5 399q0 242 138.5 397.5t348.5 155.5q126 0 225 -58.5t160 -164.5v199zM627 113q157 0 256.5 117t99.5 300t-99.5 299.5t-256.5 116.5
q-155 0 -255 -116.5t-100 -299.5t100 -300t255 -117z" />
    <glyph glyph-name="aogonek.alt" 
d="M1233 -195l65 -100q-71 -59 -172 -59q-100 0 -161.5 59t-61.5 160q0 48 22.5 91t57.5 67v176q-61 -106 -160.5 -165t-224.5 -59q-210 0 -348.5 156t-138.5 399q0 242 138.5 397.5t348.5 155.5q126 0 225 -58.5t160 -164.5v199h154v-1059q-52 0 -85.5 -33t-33.5 -84
q0 -54 31 -85t88 -31q63 0 96 38zM627 113q157 0 256.5 117t99.5 300t-99.5 299.5t-256.5 116.5q-155 0 -255 -116.5t-100 -299.5t100 -300t255 -117z" />
    <glyph glyph-name="aring.alt" 
d="M666 1206q-88 0 -149.5 61.5t-61.5 149.5t61.5 149.5t149.5 61.5t149.5 -61.5t61.5 -149.5t-61.5 -149.5t-149.5 -61.5zM666 1538q-50 0 -85.5 -36t-35.5 -85t35.5 -85t85.5 -36q49 0 84.5 35.5t35.5 85.5t-35.5 85.5t-84.5 35.5zM983 1059h154v-1059h-154v199
q-61 -106 -160.5 -165t-224.5 -59q-210 0 -348.5 156t-138.5 399q0 242 138.5 397.5t348.5 155.5q126 0 225 -58.5t160 -164.5v199zM627 113q157 0 256.5 117t99.5 300t-99.5 299.5t-256.5 116.5q-155 0 -255 -116.5t-100 -299.5t100 -300t255 -117z" />
    <glyph glyph-name="atilde.alt" 
d="M532 1313q-40 0 -65 -33t-37 -106l-94 14q31 244 196 244q41 0 80.5 -21t66 -47t58.5 -47t60 -21q79 0 102 140l94 -15q-31 -243 -196 -243q-41 0 -80.5 21t-66 46.5t-58.5 46.5t-60 21zM983 1059h154v-1059h-154v199q-61 -106 -160.5 -165t-224.5 -59q-210 0 -348.5 156
t-138.5 399q0 242 138.5 397.5t348.5 155.5q126 0 225 -58.5t160 -164.5v199zM627 113q157 0 256.5 117t99.5 300t-99.5 299.5t-256.5 116.5q-155 0 -255 -116.5t-100 -299.5t100 -300t255 -117z" />
    <glyph glyph-name="ascender" 
d="M170 0v1432h154v-1432h-154z" />
    <glyph glyph-name="descender" 
d="M170 -352v1411h154v-1411h-154z" />
    </font>
</defs>
</svg>
